ML
     
  Уважаемый Гость!
Вы можете поддержать проект и зарегистрироваться у наших партнеров - онлайн-стратегия MyLands. При регистрации в игре Вы получите код, который сможете активировать после регистрации на pirat.ca и получить 1000 дублонов.

Ваш код:
aec9a4a936117fb450ba69e519991a0465404b1d
 
     

Свободное плавание (Борис Хлебников) [2006 г., Ироничная комедия, DVDRip]

Ответить на тему
 
Автор
Сообщение

Пост 19-Дек-2011 23:21

[Q] 

leha1975

Гроза морей

Свободное плавание
Год выпуска: 2006
Жанр: Ироничная комедия
Продолжительность: 01:36:56
Режиссер: Борис Хлебников
В ролях: Александр Яценко,Дарья Екамасова,Тагир Рахимов,Евгений Сытый,Пётр Зайченко,Борис Петров,Тагир Рахимов,Нина Семёнова,Алексей Ошурков,Татьяна Рассказова,Адриан Ростовский,Сергей Пестриков,Сергей Наседкин,Владимир Терещенко
Описание: Главному герою фильма 20 лет. Он живет в небольшом городке, где есть только один детский сад, одна школа и один завод. Будущее большинства горожан заранее предопределено.Но неожиданно завод закрывают, и герой первый раз в жизни решает вопрос, чем же ему заниматься в жизни. Он плывет по течению: работает на городском рынке, получает регулярные отказы в вакансиях на бирже труда, ходит на местные дискотеки.Сюжет развивается по классическим канонам сказки: у героя есть три желания и три дороги. Но в этом городе ни одна из них не приведет героя к его судьбе. В один прекрасный момент из тумана покажется баржа с колесами и приводом от старого трактора и увезет его из этого города.


Mediainfo
G:\pirat.ca\раздачи\Свободное плавание.avi
General
Complete name : G:\pirat.ca\раздачи\Свободное плавание.avi
Format : AVI
Format/Info : Audio Video Interleave
File size : 1.46 GiB
Duration : 1h 36mn
Overall bit rate : 2 163 Kbps
Writing application : VirtualDubMod 1.5.10.3 | www.virtualdub-fr.org || (build 2550/release)
Writing library : VirtualDubMod build 2550/release
Video #0
ID : 0
Format : MPEG-4 Visual
Format profile : Advanced [email protected]
Format settings, BVOP : Yes
Format settings, QPel : No
Format settings, GMC : No warppoints
Format settings, Matrix : Default (MPEG)
Codec ID : XVID
Codec ID/Hint : XviD
Duration : 1h 36mn
Bit rate : 1 961 Kbps
Width : 720 pixels
Height : 520 pixels
Display aspect ratio : 1.385
Frame rate : 25.000 fps
Resolution : 8 bits
Colorimetry : 4:2:0
Scan type : Progressive
Bits/(Pixel*Frame) : 0.209
Stream size : 1.33 GiB (91%)
Writing library : XviD 1.2.1 (UTC 2008-12-04)
Audio #1
ID : 1
Format : AC-3
Format/Info : Audio Coding 3
Format_Settings_ModeExtension : CM (complete main)
Codec ID : 2000
Duration : 1h 36mn
Bit rate mode : Constant
Bit rate : 192 Kbps
Channel(s) : 2 channels
Channel positions : Front: L R
Sampling rate : 48.0 KHz
Stream size : 133 MiB (9%)
Alignment : Split accross interleaves
Interleave, duration : 40 ms (1.00 video frame)
Interleave, preload duration : 500 ms
Источник/Качество: DVDRipФормат: AVIВидео кодек: XviDАудио кодек: AC3Видео: 720x520 (1.38:1) 25 fps XviD build 50 1960 kbps avg 0.21 bit/pixelАудио: 48 kHz AC3 Dolby Digital 2/0 (L,R) ch 192 kbps
Download / Скачать

Хотите скачать бесплатно? Зарегистрируйтесь на сайте (ссылка на регистрацию). Pirat.ca - самый быстрый торрент трекер в рунете!

Как скачивать  ·   Что такое торрент  ·   Рейтинг и ограничения



Последний раз редактировалось: leha1975 (2011-12-21 09:44), всего редактировалось 1 раз

Пост 20-Дек-2011 00:35 (спустя 1 час 13 минут)

Топик был перенесен из форума Наше Кино в форум Российские фильмы

Skinwalker
 

Sinner2562

Штурман

Пост 24-Янв-2013 23:24 (спустя 1 год 1 месяц)

[Q] 

Хороший фильм...
[Профиль]  [ЛС] 

UncleFather

Легенда

Пост 23-Мар-2013 16:04 (спустя 1 месяц 29 дней)

[Q] 


_________________
Одни боялись Пью, другие - Билли Бонса, а меня... меня боялся сам Флинт
[Профиль]  [ЛС] 
Показать сообщения:    
Ответить на тему

Текущее время: Сегодня 02:24

Часовой пояс: GMT + 4



Вы не можете начинать темы
Вы не можете отвечать на сообщения
Вы не можете редактировать свои сообщения
Вы не можете удалять свои сообщения
Вы не можете голосовать в опросах
Вы не можете прикреплять файлы к сообщениям
Вы не можете скачивать файлы

▼ Вниз