ML
     
  Уважаемый Гость!
Вы можете поддержать проект и зарегистрироваться у наших партнеров - онлайн-стратегия MyLands. При регистрации в игре Вы получите код, который сможете активировать после регистрации на pirat.ca и получить 1000 дублонов.

Ваш код:
74c28610d77aaac24ba694c4128f3b9b46b04220
 
     

Одиночки (Владимир Балкашинов) [2011 г., мелодрама, SATRip]

Ответить на тему
 
Автор
Сообщение

Пост 20-Дек-2011 00:09

[Q] 

UA4HQW

Флибустьер

Одиночки
Год выпуска: 2011
Жанр: мелодрама
Продолжительность: 01:29:48
Режиссер: Владимир Балкашинов
В ролях: Дмитрий Орлов, Дмитрий Суржиков, Ирина Горячева, Наталья Варфоломеева, Василий Голованов
Описание: Мы приходим в этот мир в одиночку и в одиночку уходим из него. Но мы не можем прожить в одиночку отрезок времени от рождения до смерти. И, может быть, секрет счастья в том, чтобы найти тех, с кем ты не чувствуешь себя одиноким... История молодой женщины Анны, нашедшей свое счастье в лице бомжа Жорика , который в итоге оказался не таким уж бомжом. И все это - благодаря ее дочке Юле. Три одиночества - Анна, Юля и Егор оказались в конце-концов вместе, нужные и любимые друг другом.
Источник/Качество: SATRip
Формат: AVI
Видео кодек: XviD
Аудио кодек: MP3
Видео: 704x400 (1.76:1), 25 fps, XviD build 64 ~2097 kbps avg, 0.30 bit/pixel
Аудио: 48 kHz, MPEG Layer 3, 2 ch, ~128.00 kbps avg
Общее
Полное имя : Odinochki.[pirat.ca].avi
Формат : AVI
Формат/Информация : Audio Video Interleave
Размер файла : 1,40 Гбайт
Продолжительность : 1 ч. 29 м.
Общий поток : 2236 Кбит/сек
Программа кодирования : VirtualDubMod 1.5.10.3 | www.virtualdub-fr.org || (build 2550/release)
Библиотека кодирования : VirtualDubMod build 2550/release
Видео
Идентификатор : 0
Формат : MPEG-4 Visual
Профиль формата : Advanced [email protected]
Параметр BVOP формата : 1
Параметр QPel формата : Нет
Параметр GMC формата : Без точки перехода
Параметр матрицы формата : Default (H.263)
Идентификатор кодека : XVID
Идентификатор кодека/Подсказка : XviD
Продолжительность : 1 ч. 29 м.
Битрейт : 2098 Кбит/сек
Ширина : 704 пикс.
Высота : 400 пикс.
Соотношение сторон : 16:9
Частота кадров : 25,000 кадр/сек
Цветовое пространство : YUV
Подвыборка цветности : 4:2:0
Битовая глубина : 8 бит
Тип развёртки : Прогрессивная
Метод сжатия : С потерями
Бит/(Пиксели*Кадры) : 0.298
Размер потока : 1,32 Гбайт (94%)
Библиотека кодирования : XviD 64
Аудио
Идентификатор : 1
Формат : MPEG Audio
Версия формата : Version 1
Профиль формата : Layer 3
Режим : Joint stereo
Расширение режима : MS Stereo
Идентификатор кодека : 55
Идентификатор кодека/Подсказка : MP3
Продолжительность : 1 ч. 29 м.
Вид битрейта : Постоянный
Битрейт : 128 Кбит/сек
Каналы : 2 канала
Частота : 48,0 КГц
Метод сжатия : С потерями
Размер потока : 82,2 Мбайт (6%)
Выравнивание : Соединение по промежуткам
Продолжительность промежутка : 40 мс. (1,00 видеокадр)
Время предзагрузки промежутка : 504 ms
Библиотека кодирования : LAME3.98r
Настройки программы : -m j -V 4 -q 2 -lowpass 17 -b 128


,
Download / Скачать

Хотите скачать бесплатно? Зарегистрируйтесь на сайте (ссылка на регистрацию). Pirat.ca - самый быстрый торрент трекер в рунете!

Как скачивать  ·   Что такое торрент  ·   Рейтинг и ограничения

Пост 20-Дек-2011 00:31 (спустя 22 минуты)

Топик был перенесен из форума Наше Кино в форум Российские фильмы

Skinwalker
 

Pesok

Гроза морей

Пост 21-Дек-2011 17:02 (спустя 1 день 16 часов)

[Q] 

спасибо!

_________________
[Профиль]  [ЛС] 

Wolf111

57101

Пост 09-Фев-2013 14:12 (спустя 1 год 1 месяц)

[Q] 

[Профиль]  [ЛС] 

csusb

Лоцман

Пост 17-Фев-2013 11:59 (спустя 7 дней)

[Q] 

Благодаря
[Профиль]  [ЛС] 
Показать сообщения:    
Ответить на тему

Текущее время: Сегодня 09:58

Часовой пояс: GMT + 4



Вы не можете начинать темы
Вы не можете отвечать на сообщения
Вы не можете редактировать свои сообщения
Вы не можете удалять свои сообщения
Вы не можете голосовать в опросах
Вы не можете прикреплять файлы к сообщениям
Вы не можете скачивать файлы

▼ Вниз