ML
     
  Уважаемый Гость!
Вы можете поддержать проект и зарегистрироваться у наших партнеров - онлайн-стратегия MyLands. При регистрации в игре Вы получите код, который сможете активировать после регистрации на pirat.ca и получить 1000 дублонов.

Ваш код:
4399ab8611ee7f8a22949d2ee7634160dd2db7e0
 
     

Особенности русской бани (Алексей Рудаков) [1999 г., Эротическая комедия, DVDRip][internal release]

Ответить на тему
 
Автор
Сообщение

Пост 01-Мар-2013 18:13

[Q] 

megamastor

-Особенности русской бани-- Производство: КВ Фильм
Режиссер: Алексей Рудаков
Жанр: Эротическая комедия
Год выпуска: 1999 г.
Продолжительность: 01:12:28
Российская премьера: 27 сентября 1999
В ролях: Виктор Бычков, Оксана Сташенко, Ольга Зуева, Вячеслав Кулаков, Ирина Григорьева-Описание: Если для вас очевидно, что не вовремя выпитая вторая — загубленная первая, если вы понимаете, что женщина, как и пиво, сначала пенится, а потом дает наслаждение — значит, вы неплохо разбираетесь в особенностях русской бани. Если вы еще ничего не знаете про банницу — банную нечистую силу, или никогда не видели расписанного под хохлому мужского достоинства — вам просто необходимо посмотреть новую уморительную комедию для взрослых `Особенности русской бани`. А уж истории и шуточки бывалого банщика Митрича заставят вас смеяться до упаду.-Сэмпл КиноПоиск
Качество видео: DVDRip
Контейнер: AVI
Видео кодек: XviD
Аудио кодек: AC3
Видео: 720х560, 1584 Kbps, 25.000 fps
Аудио: 384 Kbps, 5 channels, 48.0 KHz
Cубтитры: отсутствуют
Format : AVI
Format/Info : Audio Video Interleave
File size : 1.00 GiB
Duration : 1h 12mn
Overall bit rate : 1 978 Kbps
Writing application : VirtualDubMod 1.5.10.3 | www.virtualdub-fr.org || (build 2550/release)
Writing library : Boilsoft AVI tool build 1/release
Video
ID : 0
Format : MPEG-4 Visual
Format profile : Advanced [email protected]
Format settings, BVOP : 2
Format settings, QPel : No
Format settings, GMC : No warppoints
Format settings, Matrix : Default (H.263)
Codec ID : XVID
Codec ID/Hint : XviD
Duration : 1h 12mn
Bit rate : 1 584 Kbps
Width : 720 pixels
Height : 560 pixels
Display aspect ratio : 1.286
Frame rate : 25.000 fps
Color space : YUV
Chroma subsampling : 4:2:0
Bit depth : 8 bits
Scan type : Progressive
Compression mode : Lossy
Bits/(Pixel*Frame) : 0.157
Stream size : 821 MiB (80%)
Writing library : XviD 1.2.1 (UTC 2008-12-04)
Audio
ID : 1
Format : AC-3
Format/Info : Audio Coding 3
Mode extension : CM (complete main)
Format settings, Endianness : Big
Codec ID : 2000
Duration : 1h 12mn
Bit rate mode : Constant
Bit rate : 384 Kbps
Channel(s) : 5 channels
Channel positions : Front: L C R, Side: L R
Sampling rate : 48.0 KHz
Bit depth : 16 bits
Compression mode : Lossy
Stream size : 199 MiB (19%)
Alignment : Split accross interleaves
Interleave, duration : 40 ms (1.00 video frame)
Interleave, preload duration : 500 ms
Download / Скачать

Хотите скачать бесплатно? Зарегистрируйтесь на сайте (ссылка на регистрацию). Pirat.ca - самый быстрый торрент трекер в рунете!

Как скачивать  ·   Что такое торрент  ·   Рейтинг и ограничения

Jigsaw

Пост 01-Мар-2013 18:45 (спустя 32 минуты)

[Q] 


megamastor az fh
Огромное спасибо! Таки "выполнили" мою маленькую просьбочку bm bi

 

Пост 01-Мар-2013 19:28 (спустя 42 минуты)

Топик был перенесен из форума Наше кино (Трюм) в форум Российские фильмы

erchine
 

Дядя Витя

53827

Пост 01-Мар-2013 19:56 (спустя 1 час 11 минут)

[Q] 

Это где партизаны с немецкими бабами в одной
бане встретились, ну как же смотрели )

_________________
?
На форуме  [Профиль]  [ЛС] 

egorka st

Корсар

Пост 02-Мар-2013 08:36 (спустя 12 часов)

[Q] 

Спасибо. Стыдно сказать, но не смотрел, даже не знал, что такой фильм есть. Сейчас посмотрю, если как все "особенности", то можно поулыбатся.)

_________________
[Профиль]  [ЛС] 

sergey718

Корсар

Пост 02-Мар-2013 09:06 (спустя 29 минут)

[Q] 

давно смотрел ещё на кассете,тогда было смешно сейчас пересмотрю сравню.
[Профиль]  [ЛС] 

TomCatGun

Флибустьер

Пост 16-Мар-2013 10:10 (спустя 14 дней)

[Q] 

[Профиль]  [ЛС] 

sany505

Морской Волк

2

Пост 16-Апр-2013 21:57 (спустя 1 месяц)

[Q] 

[Профиль]  [ЛС] 

Барбосса

Штурман

Пост 17-Апр-2013 20:30 (спустя 22 часа)

[Q] 

ФИЛЬМ Класс !
[Профиль]  [ЛС] 

Xonline

Шкипер

Пост 01-Мар-2015 11:07 (спустя 1 год 10 месяцев)

[Q] 

А вот этот фильм я не видел. Будем смотреть!
Спасибо!!!
[Профиль]  [ЛС] 

Cepreu

Морской Волк

Пост 11-Мар-2015 21:34 (спустя 10 дней)

[Q] 

Я так понимаю, скринов достаточно для того чтобы сказать, что видел этот фильм :)
[Профиль]  [ЛС] 

balamutych 8

Шкипер

Пост 07-Окт-2016 23:10 (спустя 1 год 6 месяцев)

[Q] 

Спасибо-заценим
[Профиль]  [ЛС] 
Показать сообщения:    
Ответить на тему

Текущее время: Сегодня 10:43

Часовой пояс: GMT + 4



Вы не можете начинать темы
Вы не можете отвечать на сообщения
Вы не можете редактировать свои сообщения
Вы не можете удалять свои сообщения
Вы не можете голосовать в опросах
Вы не можете прикреплять файлы к сообщениям
Вы не можете скачивать файлы

▼ Вниз