ML
     
  Уважаемый Гость!
Вы можете поддержать проект и зарегистрироваться у наших партнеров - онлайн-стратегия MyLands. При регистрации в игре Вы получите код, который сможете активировать после регистрации на pirat.ca и получить 1000 дублонов.

Ваш код:
69f316be79867e9bf99caee9682d20bb11964507
 
     

Бой с тенью 3D: Последний раунд (Алексей Сидоров) [2011 г., боевик, драма, криминал, приключения, DVDRip] [internal release]

Ответить на тему
 
Автор
Сообщение

Пост 20-Дек-2011 03:15

[Q] 

zyyx

--Бой с тенью 3D: Последний раунд-- Год выпуска: 2011
Страна: Россия
Мировая премьера: 10 сентября 2011
Российская премьера: 22 сентября 2011, «Централ Партнершип»
Дата выхода DVD: 22 декабря 2011, «Новый Диск»
Дата выхода Blu-Ray: 22 декабря 2011, «Новый Диск»
Жанр: боевик, драма, криминал, приключения
Продолжительность: 02:01:25
Перевод: Оригинал [Лицензия]
Режиссер: Алексей Сидоров
В ролях: Денис Никифоров, Андрей Панин, Елена Панова, Бату Хасиков, Михаил Горевой, Дмитрий Шевченко, Ольга Дибцева, Софья Мицкевич
Описание: Боксер-чемпион Артем Колчин достиг всех мыслимых вершин и стал национальным героем. На ринг он больше не выходит, предпочитая тренерскую работу и бурную светскую жизнь с постоянным мельканием на ТВ, тусовками и интрижками. А дома его по утрам встречают дочка и жена Вика, которая больше не узнает в нем того Артема, которого она когда-то полюбила…
Внешне благополучному существованию Колчина приходит конец, когда его подопечного чуть не убивает в бою знаменитый Куэрте. Артем подозревает, что тот использует некую запрещенную технику. За доказательствами ему приходится отправиться в Гонконг, где его ждет старый знакомый Вагит Валиев: он знает о Куэрте то, чего не знает больше ни один человек. Чтобы победить, Артему придется снова выйти на ринг.
Источник/Качество: DVDRip | Сэмпл
Формат: AVI
Видео кодек: XviD
Аудио кодек: AC3
Видео: 720x400 (1.80:1), 25 fps, XviD build 50, 1338 kbps avg, 0.19 bit/pixel
Аудио: 48 kHz, AC3 Dolby Digital, 3/2 (L,C,R,l,r) + LFE ch, 384 kbps
General
Complete name : C:\Boj.s.tenju.3D.Poslednij.raund.2011.O.DVDRip.zyyx.avi
Format : AVI
Format/Info : Audio Video Interleave
File size : 1.47 GiB
Duration : 2h 1mn
Overall bit rate : 1 732 Kbps
Writing application : VirtualDubMod 1.5.10.3 | www.virtualdub-fr.org || (build 2550/release)
Writing library : VirtualDubMod build 2550/release
Video
ID : 0
Format : MPEG-4 Visual
Format profile : Advanced [email protected]
Format settings, BVOP : 1
Format settings, QPel : No
Format settings, GMC : No warppoints
Format settings, Matrix : Default (MPEG)
Codec ID : XVID
Codec ID/Hint : XviD
Duration : 2h 1mn
Bit rate : 1 339 Kbps
Width : 720 pixels
Height : 400 pixels
Display aspect ratio : 16:9
Frame rate : 25.000 fps
Color space : YUV
Chroma subsampling : 4:2:0
Bit depth : 8 bits
Scan type : Progressive
Compression mode : Lossy
Bits/(Pixel*Frame) : 0.186
Stream size : 1.14 GiB (77%)
Writing library : XviD 1.2.1 (UTC 2008-12-04)
Audio
ID : 1
Format : AC-3
Format/Info : Audio Coding 3
Mode extension : CM (complete main)
Codec ID : 2000
Duration : 2h 1mn
Bit rate mode : Constant
Bit rate : 384 Kbps
Channel(s) : 6 channels
Channel positions : Front: L C R, Side: L R, LFE
Sampling rate : 48.0 KHz
Bit depth : 16 bits
Compression mode : Lossy
Stream size : 333 MiB (22%)
Alignment : Split accross interleaves
Interleave, duration : 40 ms (1.00 video frame)
Interleave, preload duration : 500 ms


Download / Скачать

Хотите скачать бесплатно? Зарегистрируйтесь на сайте (ссылка на регистрацию). Pirat.ca - самый быстрый торрент трекер в рунете!

Как скачивать  ·   Что такое торрент  ·   Рейтинг и ограничения

Пост 20-Дек-2011 06:36 (спустя 3 часа)

Топик был перенесен из форума Наше Кино в форум Новинки (HD|DVD|BD|TV|SAT|PDTV| - Rips)

Skinwalker
 

ElektroKoT

Шкипер

21

Пост 20-Дек-2011 10:09 (спустя 6 часов)

[Q] 

Что-то описание напоминает одну из серий "Рокки" со Сталлоне
[Профиль]  [ЛС] 

merzsergio

Шкипер

Пост 20-Дек-2011 14:51 (спустя 4 часа)

[Q] 

спасибо....первый буду
[Профиль]  [ЛС] 

alexx69

Морской Волк

Пост 20-Дек-2011 14:53 (спустя 2 минуты)

[Q] 

спасибо!!! посмотрим

_________________
[Профиль]  [ЛС] 

PREDATOR

Корсар

Пост 22-Дек-2011 03:52 (спустя 1 день 12 часов)

[Q] 

Спасибо!!! Советую всем!!! Фильм супер!!!

_________________
[Профиль]  [ЛС] 

qwasca

Морской Волк

359

Пост 22-Дек-2011 17:37 (спустя 13 часов)

[Q] 

Спасибо!!! Советую всем!!! Фильм супер!!!
присоединяюсь

_________________
[Профиль]  [ЛС] 

мыкола

Шкипер

Пост 22-Дек-2011 20:26 (спустя 2 часа 48 минут)

[Q] 

посмотрим, спасибо
[Профиль]  [ЛС] 

Денисник

Штурман

Пост 28-Дек-2011 17:05 (спустя 5 дней)

[Q] 

спасим пасатрю
[Профиль]  [ЛС] 

Aleks44

Гроза морей

Пост 30-Дек-2011 23:40 (спустя 2 дня 6 часов)

[Q] 

«Белый цвет – березка, Синий – неба цвет, Красная полоска – солнечный рассвет» Фильм КЛАСС
[Профиль]  [ЛС] 

ewgeniw

Шкипер

Пост 05-Янв-2012 15:41 (спустя 5 дней)

[Q] 

Мне первые две очень понравились надеюсь и эта не разочарует
[Профиль]  [ЛС] 

timdro

Лоцман

Пост 06-Янв-2012 20:00 (спустя 1 день 4 часа)

[Q] 

как смотреть то в 3D?
[Профиль]  [ЛС] 

timdro

Лоцман

Пост 06-Янв-2012 20:08 (спустя 8 минут)

[Q] 

без очков реально глянуть?
[Профиль]  [ЛС] 

timdro

Лоцман

Пост 06-Янв-2012 20:31 (спустя 22 минуты)

[Q] 

дааа однако я ступил)))) он вовсе не 3D)))))
[Профиль]  [ЛС] 

qwasca

Морской Волк

359

Пост 12-Янв-2012 01:05 (спустя 5 дней)

[Q] 

timdro, у него кувалда трёхмерная cr

_________________
[Профиль]  [ЛС] 

Валерий001

Шкипер

8

Пост 15-Янв-2012 06:06 (спустя 3 дня)

[Q] 

нормальный боевичек на твердую 4 из 5
[Профиль]  [ЛС] 

pro100userspb

Корсар

Пост 17-Янв-2012 19:46 (спустя 2 дня 13 часов)

[Q] 

спасиб

_________________
[Профиль]  [ЛС] 

Yrets

Флибустьер

159

Пост 18-Янв-2012 16:39 (спустя 20 часов)

[Q] 

Нормальный фильм)))) Спасибо...
[Профиль]  [ЛС] 

usoff

Лоцман

Пост 21-Янв-2012 01:19 (спустя 2 дня 8 часов)

[Q] 

хороший фильм
[Профиль]  [ЛС] 

ArmSlave

Штурман

Пост 21-Янв-2012 20:47 (спустя 19 часов)

[Q] 

отличный фильм
[Профиль]  [ЛС] 

-RIDDICK-

Штурман

Пост 22-Янв-2012 03:24 (спустя 6 часов)

[Q] 

Классный фильм, все части норм!
[Профиль]  [ЛС] 

GarySk

Корсар

Пост 03-Фев-2012 17:02 (спустя 12 дней)

[Q] 

Спасибо!!
[Профиль]  [ЛС] 

polozm

Легенда

Пост 10-Фев-2012 11:20 (спустя 6 дней)

[Q] 

спасибо.долго ходил мимо но созрел на просмотр.ща гляну

_________________
mac mini -2.0 GHz Intel Core i7/ 8 GB DDR3. /Intel HD 3000(512mb)OS X 10.9 Mavericks
[Профиль]  [ЛС] 

smertgovno

Морской Волк

Пост 14-Фев-2012 17:42 (спустя 4 дня)

[Q] 

спс очень доволен саще классс
[Профиль]  [ЛС] 

CHARLI2236

1094

Пост 25-Июл-2013 19:09 (спустя 1 год 5 месяцев)

[Q] 

10

_________________
[Профиль]  [ЛС] 
Показать сообщения:    
Ответить на тему

Текущее время: Сегодня 14:35

Часовой пояс: GMT + 4



Вы не можете начинать темы
Вы не можете отвечать на сообщения
Вы не можете редактировать свои сообщения
Вы не можете удалять свои сообщения
Вы не можете голосовать в опросах
Вы не можете прикреплять файлы к сообщениям
Вы не можете скачивать файлы

▼ Вниз