ML
     
  Уважаемый Гость!
Вы можете поддержать проект и зарегистрироваться у наших партнеров - онлайн-стратегия MyLands. При регистрации в игре Вы получите код, который сможете активировать после регистрации на pirat.ca и получить 1000 дублонов.

Ваш код:
69f316be79867e9bf99caee9682d20bb11964507
 
     

Волчий остров (Алексей Шикин) [2012 г., Криминал, SATRip]

Ответить на тему
 
Автор
Сообщение

Пост 04-Мар-2013 17:40

[Q] 

cergo

Гроза морей

-Волчий остров-- Производство: Россия, «Форвард-Фильм», «Навигатор»
Режиссер: Алексей Шикин
Жанр: Криминал
Год выпуска: 2012 г.
Продолжительность: 01:31:55
Российская премьера: 3 марта 2013
В ролях: Михаил Трухин, Александр Половцев, Кирилл Варакса, Олег Метелев, Александр Кабанов, Сергей Папуша, Сергей Дружко, Андрей Вергелис, Мария Безносова, Евгений Анисимов, Лариса Логинова
-Описание: На молодежной вечеринке произошла драка, в результате которой тяжело ранен сын крупного бизнесмена. Майор Волков узнаёт, что стрелявший в парня молодой человек Антон скрывается на небольшом острове в Балтийском море, и принимает решение самостоятельно задержать преступника. Дело кажется простым, пока остров не оказывается отрезанным от большой земли штормом и грозой, а вместо задержания безоружного парня Волкову приходится защищать поселок и местное отделение полиции от группы вооруженных бандитов.-
Качество видео: SATRip
Контейнер: AVI
Видео кодек: XviD
Аудио кодек: MP3
Видео: 720x400 (1.80:1), 25 fps, XviD build 65 ~1925 kbps avg, 0.27 bit/pixel
Аудио: 48 kHz, MPEG Layer 3, 2 ch, ~192.00 kbps avg
Cубтитры: отсутствуют
Общее
Полное имя : D:\Архив\ФИЛЬМЫ\Волчий остров.2012.SATRip.avi
Формат : AVI
Формат/Информация : Audio Video Interleave
Размер файла : 1,37 Гбайт
Продолжительность : 1 ч. 31 м.
Общий поток : 2127 Кбит/сек
Программа кодирования : VirtualDubMod 1.5.10.2 (build 2540/release)
Библиотека кодирования : VirtualDubMod build 2540/release
Видео
Идентификатор : 0
Формат : MPEG-4 Visual
Профиль формата : Advanced [email protected]
Параметр BVOP формата : 2
Параметр QPel формата : Нет
Параметр GMC формата : Без точки перехода
Параметр матрицы формата : Default (MPEG)
Идентификатор кодека : XVID
Идентификатор кодека/Подсказка : XviD
Продолжительность : 1 ч. 31 м.
Битрейт : 1925 Кбит/сек
Ширина : 720 пикселей
Высота : 400 пикселей
Соотношение сторон : 16:9
Частота кадров : 25,000 кадров/сек
Цветовое пространство : YUV
Субдискретизация насыщенности : 4:2:0
Битовая глубина : 8 бит
Тип развёртки : Прогрессивная
Метод сжатия : С потерями
Бит/(Пиксели*Кадры) : 0.267
Размер потока : 1,24 Гбайт (91%)
Библиотека кодирования : XviD 65
Аудио
Идентификатор : 1
Формат : MPEG Audio
Версия формата : Version 1
Профиль формата : Layer 3
Режим : Joint stereo
Расширение режима : MS Stereo
Идентификатор кодека : 55
Идентификатор кодека/Подсказка : MP3
Продолжительность : 1 ч. 31 м.
Вид битрейта : Постоянный
Битрейт : 192 Кбит/сек
Каналы : 2 канала
Частота : 48,0 КГц
Метод сжатия : С потерями
Размер потока : 126 Мбайт (9%)
Выравнивание : Соединение по промежуткам
Продолжительность промежутка : 40 мс. (1,00 видеокадр)
Время предзагрузки промежутка : 504 мс.
Download / Скачать

Хотите скачать бесплатно? Зарегистрируйтесь на сайте (ссылка на регистрацию). Pirat.ca - самый быстрый торрент трекер в рунете!

Как скачивать  ·   Что такое торрент  ·   Рейтинг и ограничения

alexdubna

Морской Волк

Пост 04-Мар-2013 18:30 (спустя 50 минут)

[Q] 

[Профиль]  [ЛС] 

cergo ®

Гроза морей

20035

Пост 04-Мар-2013 18:44 (спустя 14 минут)

[Q] 

alexdubna, aa az
[Профиль]  [ЛС] 

kisu

Гроза морей

Пост 04-Мар-2013 19:14 (спустя 29 минут)

[Q] 

посмотрим сей очередной шедевр!
[Профиль]  [ЛС] 

bs_z03

Шкипер

Пост 04-Мар-2013 20:22 (спустя 1 час 8 минут)

[Q] 


думается под пивко нормально пойдёт
[Профиль]  [ЛС] 

Andrew35811

Лоцман

Пост 04-Мар-2013 20:30 (спустя 8 минут)

[Q] 

Только под пивко и смотреть!
[Профиль]  [ЛС] 

lexmar

Корсар

Пост 04-Мар-2013 21:14 (спустя 43 минуты)

[Q] 

bi
[Профиль]  [ЛС] 

cergo ®

Гроза морей

20035

Пост 04-Мар-2013 22:12 (спустя 58 минут)

[Q] 

bs_z03, Andrew35811, lexmar, infiniti-r, war345, aa az
[Профиль]  [ЛС] 

igorexa1111

Корсар

Пост 05-Мар-2013 09:37 (спустя 11 часов)

[Q] 

Очередной соцзаказ?
[Профиль]  [ЛС] 

infiniti-r

Корсар

Пост 05-Мар-2013 13:04 (спустя 3 часа)

[Q] 

[Профиль]  [ЛС] 

war345

Шкипер

Пост 05-Мар-2013 19:54 (спустя 6 часов)

[Q] 

[Профиль]  [ЛС] 

Aleks44

Гроза морей

Пост 07-Мар-2013 01:57 (спустя 1 день 6 часов)

[Q] 

Нормальный боевик, на острове два брата мента представили истинное лицо полиции, по поводу пластиковой карты в конце фильма это бред
[Профиль]  [ЛС] 

alexkalchenko

Корсар

40

Пост 08-Мар-2013 09:02 (спустя 1 день 7 часов)

[Q] 

в фильме как-то все "наляпано" идея не плоха , а вот как сняли :( на кинопоиске рейтинг 7 так и не понял за что .
[Профиль]  [ЛС] 

kentovit

Лоцман

Пост 12-Мар-2013 17:13 (спустя 4 дня)

[Q] 

335311в фильме как-то все "наляпано" идея не плоха , а вот как сняли :( на кинопоиске рейтинг 7 так и не понял за что .
Так всего 34 голоса, скорее всего вся съемочная группа голосовала bj
[Профиль]  [ЛС] 

_Marks_

Флибустьер

Пост 13-Мар-2013 19:35 (спустя 1 день 2 часа)

[Q] 

[Профиль]  [ЛС] 

zapad - 08

Шкипер

Пост 14-Мар-2013 00:51 (спустя 5 часов)

[Q] 

333445Описание: Майор Волков узнаёт, что стрелявший в парня молодой человек Антон скрывается на небольшом острове в Балтийском море, и принимает решение самостоятельно задержать преступника.
bj Это из области фантастики , нашолся великий майор Волков (почему не Мусорилов) .
Попандопало из Одессы , звучало-б интересно , для просмотра .
[Профиль]  [ЛС] 

Stalker_29

Корсар

Пост 14-Мар-2013 12:14 (спустя 11 часов)

[Q] 

Взял пиво иду смотреть, будет скучно-возьму водки!
[Профиль]  [ЛС] 

Stalker_29

Корсар

Пост 18-Мар-2013 20:04 (спустя 4 дня)

[Q] 

Да не фонтан, если заняться ну совсем уже нечем, то тогда пожалуйста))
[Профиль]  [ЛС] 

ivan.tratil 67

Корсар

Пост 06-Апр-2013 13:32 (спустя 18 дней)

[Q] 

ПОПРОБУЮ
[Профиль]  [ЛС] 

TomCatGun

Флибустьер

Пост 07-Апр-2013 09:53 (спустя 20 часов)

[Q] 

[Профиль]  [ЛС] 

Nemetz

Корсар

Пост 11-Апр-2013 06:07 (спустя 3 дня)

[Q] 

Менты очередные?)
[Профиль]  [ЛС] 
Показать сообщения:    
Ответить на тему

Текущее время: Сегодня 14:34

Часовой пояс: GMT + 4



Вы не можете начинать темы
Вы не можете отвечать на сообщения
Вы не можете редактировать свои сообщения
Вы не можете удалять свои сообщения
Вы не можете голосовать в опросах
Вы не можете прикреплять файлы к сообщениям
Вы не можете скачивать файлы

▼ Вниз