ML
     
  Уважаемый Гость!
Вы можете поддержать проект и зарегистрироваться у наших партнеров - онлайн-стратегия MyLands. При регистрации в игре Вы получите код, который сможете активировать после регистрации на pirat.ca и получить 1000 дублонов.

Ваш код:
2a3da67fd641d69eeebb7cb965232435a70eaa24
 
     

Метро (Антон Мегердичев) [2013 г., триллер, драма, HDRip] Лицензия

Страницы :  1, 2, 3, 4, 5  След.

Ответить на тему
 
Автор
Сообщение

Пост 07-Мар-2013 23:47

[Q] 

dimkoba

-Метро-- Производство: Россия / Профит
Режиссер: Антон Мегердичев
Жанр: триллер, драма
Год выпуска: 2013 г.
Продолжительность: 02:11:44
Российская премьера: 21 февраля 2013, «Наше Кино»
Дата выхода DVD: 12 марта 2013, «Lizard Cinema Trade»
Дата выхода Blu-Ray: 12 марта 2013, «Lizard Cinema Trade»-В ролях: Сергей Пускепалис, Анатолий Белый, Анфиса Вистингаузен, Алексей Бардуков, Катерина Шпица, Елена Панова, Станислав Дужников, Светлана Ходченкова, Сергей Сосновский, Ярослав Жалнин, Александр Яковлев, Владимир Стержаков-Описание: Широко развернувшееся в центре Москвы строительство новых зданий приводит к тому, что в одном из тоннелей метро между двумя станциями возникает трещина. Никто себе и представить не мог, что в результате нарушения герметичности перекрытия в тоннель хлынет вода из Москва-реки, и сотни пассажиров поезда окажутся во власти надвигающегося потопа. Бешеный поток воды грозит не только обрушением тоннелей метро, но и разрушением всего города. Среди попавших в беду людей — врач городской больницы Андрей Гарин и его дочь Ксюша. Гарин сражается с катастрофой, пытаясь спасти оставшихся в живых пассажиров, в том числе и …любовника своей жены. Гарину придется побороть обиду, гнев и страх. Он должен выжить, чтобы вернуть свою любовь, семью… свою прежнюю счастливую жизнь.-Сэмпл КиноПоиск
Качество видео: HDRip
Контейнер: AVI
Видео кодек: XviD
Аудио кодек: AC3
Видео: 720x304 , 23.976 fps, 1126 Kbps 0.214 bit/pixel
Аудио: 48.0 KHz, 6 ch, 448 Kbps, CBR
Cубтитры: отсутствуют
Полное имя : D:\загрузка\Metro.2013.D.[Pirat.ca].avi
Формат : AVI
Формат/Информация : Audio Video Interleave
Размер файла : 1,46 Гбайт
Продолжительность : 2 ч. 11 м.
Общий поток : 1583 Кбит/сек
Программа кодирования : VirtualDubMod 1.5.10.3 | www.virtualdub-fr.org || (build 2550/release)
Библиотека кодирования : VirtualDubMod build 2550/release
Видео
Идентификатор : 0
Формат : MPEG-4 Visual
Профиль формата : Advanced [email protected]
Параметр BVOP формата : 1
Параметр QPel формата : Нет
Параметр GMC формата : Без точки перехода
Параметр матрицы формата : Выборочная
Идентификатор кодека : XVID
Идентификатор кодека/Подсказка : XviD
Продолжительность : 2 ч. 11 м.
Битрейт : 1126 Кбит/сек
Ширина : 720 пикселей
Высота : 304 пикселя
Соотношение сторон : 2,35:1
Частота кадров : 23,976 кадра/сек
Цветовое пространство : YUV
Субдискретизация насыщенности : 4:2:0
Битовая глубина : 8 бит
Тип развёртки : Прогрессивная
Метод сжатия : С потерями
Бит/(Пиксели*Кадры) : 0.214
Размер потока : 1,04 Гбайт (71%)
Библиотека кодирования : XviD 1.2.1 (UTC 2008-12-04)
Аудио
Идентификатор : 1
Формат : AC-3
Формат/Информация : Audio Coding 3
Расширение режима : CM (complete main)
Параметр Endianness формата : Big
Идентификатор кодека : 2000
Продолжительность : 2 ч. 11 м.
Вид битрейта : Постоянный
Битрейт : 448 Кбит/сек
Каналы : 6 каналов
Расположение каналов : Front: L C R, Side: L R, LFE
Частота : 48,0 КГц
Битовая глубина : 16 бит
Метод сжатия : С потерями
Размер потока : 422 Мбайт (28%)
Выравнивание : Разделение по промежуткам
Продолжительность промежутка : 42 мс. (1,00 видеокадр)
Время предзагрузки промежутка : 500 мс.
Download / Скачать

Хотите скачать бесплатно? Зарегистрируйтесь на сайте (ссылка на регистрацию). Pirat.ca - самый быстрый торрент трекер в рунете!

Как скачивать  ·   Что такое торрент  ·   Рейтинг и ограничения

Пост 08-Мар-2013 00:00 (спустя 12 минут)

Топик был перенесен из форума Наше кино (Трюм) в форум Новинки (HD|DVD|BD|TV|SAT|PDTV| - Rips)

erchine
 

jocose

Морской Волк

Пост 08-Мар-2013 00:06 (спустя 19 минут)

[Q] 

оперативно)))
рекомендовали, надо посмотреть))
[Профиль]  [ЛС] 

bearcub5

Штурман

Пост 08-Мар-2013 00:21 (спустя 15 минут)

[Q] 

[Профиль]  [ЛС] 

Serzh18

Корсар

Пост 08-Мар-2013 01:27 (спустя 1 час 5 минут)

[Q] 

[Профиль]  [ЛС] 

eevgenu45

Морской Волк

Пост 08-Мар-2013 02:15 (спустя 48 минут)

[Q] 

[Профиль]  [ЛС] 

Adeges

Штурман

Пост 08-Мар-2013 09:06 (спустя 6 часов)

[Q] 

[Профиль]  [ЛС] 

petr_vv86

Морской Волк

Пост 08-Мар-2013 09:10 (спустя 3 минуты)

[Q] 

[Профиль]  [ЛС] 

MAKS1978

Шкипер

Пост 08-Мар-2013 09:13 (спустя 3 минуты)

[Q] 

[Профиль]  [ЛС] 

bull271174

Флибустьер

Пост 08-Мар-2013 09:20 (спустя 6 минут)

[Q] 

[Профиль]  [ЛС] 

svetly

Морской Волк

Пост 08-Мар-2013 09:38 (спустя 18 минут)

[Q] 

[Профиль]  [ЛС] 

ALEKSANDR-2

Лоцман

Пост 08-Мар-2013 09:45 (спустя 7 минут)

[Q] 


_________________
i7-3770K,Asus P8Z77-V Asus GTX 680
[Профиль]  [ЛС] 

dimonpa

Гроза морей

Пост 08-Мар-2013 10:28 (спустя 42 минуты)

[Q] 

[Профиль]  [ЛС] 

chip518

Лоцман

Пост 08-Мар-2013 10:35 (спустя 7 минут)

[Q] 

[Профиль]  [ЛС] 

Boks

Штурман

Пост 08-Мар-2013 10:56 (спустя 20 минут)

[Q] 

[Профиль]  [ЛС] 

maglot129

Корсар

Пост 08-Мар-2013 11:51 (спустя 55 минут)

[Q] 

бочка!!!
[Профиль]  [ЛС] 

Korolev.bv

Штурман

Пост 08-Мар-2013 12:48 (спустя 57 минут)

[Q] 

НАРОД А ФИЛЬМ ТО СТОЯЩИЙ?
[Профиль]  [ЛС] 

veter13

Корсар

Пост 08-Мар-2013 12:54 (спустя 5 минут)

[Q] 

[Профиль]  [ЛС] 

lexmar

Корсар

Пост 08-Мар-2013 13:30 (спустя 36 минут)

[Q] 

[Профиль]  [ЛС] 

Serj180275

Шкипер

Пост 08-Мар-2013 13:57 (спустя 26 минут)

[Q] 


_________________
[Профиль]  [ЛС] 

Ahzool

Корсар

Пост 08-Мар-2013 13:58 (спустя 1 минута)

[Q] 

как и все фильмы о катастрофах пустые и некчёмнымные, мне не понравилось, я и не поклонник такого жанра, снято не дурно...

_________________
Si non es occupatus quid natum moriendo occupatus es,beauty creatur vultus.
[Профиль]  [ЛС] 

sekin22

Шкипер

Пост 08-Мар-2013 14:05 (спустя 6 минут)

[Q] 

Спасибо,ждал!
[Профиль]  [ЛС] 

valerakochuev

Морской Волк

Пост 08-Мар-2013 14:12 (спустя 7 минут)

[Q] 

Хороший фильм.
[Профиль]  [ЛС] 

pro100userspb

Корсар

Пост 08-Мар-2013 16:41 (спустя 2 часа 28 минут)

[Q] 


_________________
[Профиль]  [ЛС] 

RnD

Морской Волк

Пост 08-Мар-2013 18:03 (спустя 1 час 21 минута)

[Q] 

О, вот и качество подоспело! Респект! Бочонок в трюме! :)
[Профиль]  [ЛС] 

Stormwave

Шкипер

Пост 08-Мар-2013 18:08 (спустя 4 минуты)

[Q] 

Урааа хд! спасибо огромное)
[Профиль]  [ЛС] 

jesus-w

Корсар

Пост 08-Мар-2013 18:29 (спустя 21 минута)

[Q] 

[Профиль]  [ЛС] 

Armen2009

Штурман

Пост 08-Мар-2013 19:14 (спустя 44 минуты)

[Q] 

Спасибо за релиз !!!
[Профиль]  [ЛС] 

cruzzel

Корсар

Пост 08-Мар-2013 20:29 (спустя 1 час 15 минут)

[Q] 


_________________
NEWSLOL.NET
[Профиль]  [ЛС] 

VMarkus

Шкипер

Пост 08-Мар-2013 20:56 (спустя 27 минут)

[Q] 

Спасибо!
[Профиль]  [ЛС] 
Показать сообщения:    
Ответить на тему

Текущее время: Сегодня 01:14

Часовой пояс: GMT + 4



Вы не можете начинать темы
Вы не можете отвечать на сообщения
Вы не можете редактировать свои сообщения
Вы не можете удалять свои сообщения
Вы не можете голосовать в опросах
Вы не можете прикреплять файлы к сообщениям
Вы не можете скачивать файлы

▼ Вниз