ML
     
  Уважаемый Гость!
Вы можете поддержать проект и зарегистрироваться у наших партнеров - онлайн-стратегия MyLands. При регистрации в игре Вы получите код, который сможете активировать после регистрации на pirat.ca и получить 1000 дублонов.

Ваш код:
69f316be79867e9bf99caee9682d20bb11964507
 
     

Метро (Антон Мегердичев) [2013 г., триллер, драма, BDRip] [Лицензия]

Ответить на тему
 
Автор
Сообщение

Пост 08-Мар-2013 22:04

[Q] 

AGKRus36

-Метро-- Производство: Россия
Режиссер: Антон Мегердичев
Жанр: триллер, драма
Год выпуска: 2013 г.
Продолжительность: 02:11:14
Российская премьера: 21 февраля 2013, «Наше Кино»
Дата выхода DVD: 12 марта 2013, «Lizard Cinema Trade»
Дата выхода Blu-Ray: 12 марта 2013, «Lizard Cinema Trade»-В ролях: Сергей Пускепалис, Анатолий Белый, Анфиса Вистингаузен, Алексей Бардуков, Катерина Шпица, Елена Панова, Станислав Дужников, Светлана Ходченкова, Сергей Сосновский, Ярослав Жалнин, Александр Яковлев, Владимир Стержаков-Описание: Широко развернувшееся в центре Москвы строительство новых зданий приводит к тому, что в одном из тоннелей метро между двумя станциями возникает трещина. Никто себе и представить не мог, что в результате нарушения герметичности перекрытия в тоннель хлынет вода из Москва-реки, и сотни пассажиров поезда окажутся во власти надвигающегося потопа. Бешеный поток воды грозит не только обрушением тоннелей метро, но и разрушением всего города.
Среди попавших в беду людей — врач городской больницы Андрей Гарин и его дочь Ксюша. Гарин сражается с катастрофой, пытаясь спасти оставшихся в живых пассажиров, в том числе и …любовника своей жены. Гарину придется побороть обиду, гнев и страх. Он должен выжить, чтобы вернуть свою любовь, семью… свою прежнюю счастливую жизнь-Сэмпл КиноПоискКачество видео: BDRip
Контейнер: AVI
Видео кодек: XviD
Аудио кодек: MP3
Видео: 640x272 (2.35:1), 23.976 fps, XviD build 50 ~693 kbps avg, 0.17 bit/pixel
Аудио: 48 kHz, MPEG Layer 3, 2 ch, ~128.00 kbps avg [Лицензия]
Cубтитры: отсутствуют
D:\Фильмы\Метро\Metro.2013.O.BDRip.avi
General
Complete name : D:\Фильмы\Метро\Metro.2013.O.BDRip.avi
Format : AVI
Format/Info : Audio Video Interleave
File size : 783 MiB
Duration : 2h 11mn
Overall bit rate : 831 Kbps
Writing application : VirtualDubMod 1.5.10.2 (build 2540/release)
Writing library : VirtualDub build 32842/release
Video #0
ID : 0
Format : MPEG-4 Visual
Format profile : Advanced [email protected]
Format settings, BVOP : 1
Format settings, QPel : No
Format settings, GMC : No warppoints
Format settings, Matrix : Custom
Codec ID : XVID
Codec ID/Hint : XviD
Duration : 2h 11mn
Bit rate : 694 Kbps
Width : 640 pixels
Height : 272 pixels
Display aspect ratio : 2.35:1
Frame rate : 23.976 fps
Color space : YUV
Chroma subsampling : 4:2:0
Bit depth : 8 bits
Scan type : Progressive
Compression mode : Lossy
Bits/(Pixel*Frame) : 0.166
Stream size : 654 MiB (83%)
Writing library : XviD 1.2.1 (UTC 2008-12-04)
Audio #1
ID : 1
Format : MPEG Audio
Format version : Version 1
Format profile : Layer 3
Codec ID : 55
Codec ID/Hint : MP3
Duration : 2h 11mn
Bit rate mode : Constant
Bit rate : 128 Kbps
Channel(s) : 2 channels
Sampling rate : 48.0 KHz
Compression mode : Lossy
Stream size : 121 MiB (15%)
Alignment : Aligned on interleaves
Interleave, duration : 42 ms (1.00 video frame)
Interleave, preload duration : 504 ms
Writing library : LAME3.97
Encoding settings : -m s -V 4 -q 2 -lowpass 17 -b 128-m s -V 4 -q 2 -lowpass 17 -b 128-m s -V 4 -q 2 -lowpass 17 -b 128
Download / Скачать

Хотите скачать бесплатно? Зарегистрируйтесь на сайте (ссылка на регистрацию). Pirat.ca - самый быстрый торрент трекер в рунете!

Как скачивать  ·   Что такое торрент  ·   Рейтинг и ограничения



Последний раз редактировалось: AGKRus36 (2013-03-08 23:12), всего редактировалось 1 раз

Dicsus

Лоцман

Пост 08-Мар-2013 22:22 (спустя 18 минут)

[Q] 

Качаю. Помогу с раздачей..
[Профиль]  [ЛС] 

AGKRus36 ®

37905

Пост 08-Мар-2013 23:13 (спустя 51 минута)

[Q] 

335729 Качаю. Помогу с раздачей..
dc az

_________________
Мои раздачи
[Профиль]  [ЛС] 

Пост 08-Мар-2013 23:20 (спустя 7 минут)

Топик был перенесен из форума Наше кино (Трюм) в форум Новинки (HD|DVD|BD|TV|SAT|PDTV| - Rips)

ara1205
 

Elgarroti

Штурман

Пост 08-Мар-2013 23:24 (спустя 10 минут)

[Q] 

[Профиль]  [ЛС] 

FreecsteR

Шкипер

Пост 11-Мар-2013 14:51 (спустя 2 дня 15 часов)

[Q] 

[Профиль]  [ЛС] 

Доцент

405

Пост 11-Мар-2013 18:51 (спустя 3 часа)

[Q] 

Спасибо
[Профиль]  [ЛС] 

femaxx

Корсар

Пост 12-Мар-2013 18:11 (спустя 23 часа)

[Q] 

[Профиль]  [ЛС] 

Артур

Шкипер

Пост 12-Мар-2013 18:34 (спустя 23 минуты)

[Q] 

[Профиль]  [ЛС] 

Megavolt_143

Шкипер

Пост 22-Мар-2013 03:18 (спустя 9 дней)

[Q] 

[Профиль]  [ЛС] 

Taika

Морской Волк

Пост 24-Мар-2013 20:46 (спустя 2 дня 17 часов)

[Q] 

[Профиль]  [ЛС] 

FreecsteR

Шкипер

Пост 13-Апр-2013 21:03 (спустя 20 дней)

[Q] 

[Профиль]  [ЛС] 

anton78

Морской Волк

Пост 13-Апр-2013 23:05 (спустя 2 часа 2 минуты)

[Q] 

мЛЯТЬ Всё глаза не доходят)). Как фильм???
[Профиль]  [ЛС] 

Пост 14-Апр-2013 18:37 (спустя 19 часов)

Топик был перенесен из форума Новинки (HD|DVD|BD| TV|SAT|PDTV| - Rips) в форум Российские фильмы

ara1205
 

Bassmuch

Шкипер

Пост 20-Апр-2013 15:36 (спустя 6 дней)

[Q] 

Неплохой. bs
[Профиль]  [ЛС] 

Simsim

Морской Волк

Пост 21-Апр-2013 18:22 (спустя 1 день 2 часа)

[Q] 

Буду смотреть.!спасибо
[Профиль]  [ЛС] 

Grand Zero

Морской Волк

Пост 20-Июн-2013 10:00 (спустя 1 месяц 28 дней)

[Q] 

[Профиль]  [ЛС] 
Показать сообщения:    
Ответить на тему

Текущее время: Сегодня 14:34

Часовой пояс: GMT + 4



Вы не можете начинать темы
Вы не можете отвечать на сообщения
Вы не можете редактировать свои сообщения
Вы не можете удалять свои сообщения
Вы не можете голосовать в опросах
Вы не можете прикреплять файлы к сообщениям
Вы не можете скачивать файлы

▼ Вниз