ML
     
  Уважаемый Гость!
Вы можете поддержать проект и зарегистрироваться у наших партнеров - онлайн-стратегия MyLands. При регистрации в игре Вы получите код, который сможете активировать после регистрации на pirat.ca и получить 1000 дублонов.

Ваш код:
dbd0d701284cde74a1f34d06ce20b7bc75a73e75
 
     

Метро (Антон Мегердичев) [2013 г., Триллер, драма, BDRip-AVC] [Лицензия]

Страницы :  1, 2  След.

Ответить на тему
 
Автор
Сообщение

Пост 09-Мар-2013 17:12

[Q] 

AGKRus36

-Метро-- Производство: Россия / Профит
Режиссер: Антон Мегердичев
Жанр: Триллер, драма
Год выпуска: 2013 г.
Продолжительность: 02:11:44
Российская премьера: 21 февраля 2013, «Наше Кино»
Дата выхода DVD: 21 февраля 2013, «Наше Кино»
Дата выхода Blu-Ray: 21 февраля 2013, «Наше Кино»-В ролях: Сергей Пускепалис, Анатолий Белый, Анфиса Вистингаузен, Алексей Бардуков, Катерина Шпица, Елена Панова, Станислав Дужников, Светлана Ходченкова, Сергей Сосновский, Ярослав Жалнин...-Описание: Широко развернувшееся в центре Москвы строительство новых зданий приводит к тому, что в одном из тоннелей метро между двумя станциями возникает трещина. Никто себе и представить не мог, что в результате нарушения герметичности перекрытия в тоннель хлынет вода из Москва-реки, и сотни пассажиров поезда окажутся во власти надвигающегося потопа. Бешеный поток воды грозит не только обрушением тоннелей метро, но и разрушением всего города. Среди попавших в беду людей — врач городской больницы Андрей Гарин и его дочь Ксюша. Гарин сражается с катастрофой, пытаясь спасти оставшихся в живых пассажиров, в том числе и …любовника своей жены. Гарину придется побороть обиду, гнев и страх. Он должен выжить, чтобы вернуть свою любовь, семью… свою прежнюю счастливую жизнь.-Сэмпл КиноПоискКачество видео: BDRip-AVC
Контейнер: MKV
Видео кодек: H.264
Аудио кодек: AC3
Видео: H.264, 880x374 (2.35:1), 23,976 fps, 1461 Кbps, 0.185 bit/pixel
Аудио: 48 kHz, AC3 Dolby Digital, 2/0 (L,R) ch, ~192 kbps [Лицензия]
Cубтитры: отсутствуют
F:\Метро\Metro.2012.O.BDRip.x264.AVC.mkv
General
Unique ID : 181511375201776362768126337385650378511 (0x888DD1BBFE4BCF1CBC5B3D7DBBCAD70F)
Complete name : F:\Метро\Metro.2012.O.BDRip.x264.AVC.mkv
Format : Matroska
Format version : Version 4 / Version 2
File size : 1.52 GiB
Duration : 2h 11mn
Overall bit rate : 1 653 Kbps
Movie name : -=POTROKS=-
Encoded date : UTC 2013-03-09 09:16:53
Writing application : mkvmerge v5.9.0 ('On The Loose') built on Dec 15 2012 16:39:58
Writing library : libebml v1.3.0 + libmatroska v1.4.0
Video #1
ID : 1
Format : AVC
Format/Info : Advanced Video Codec
Format profile : [email protected]
Format settings, CABAC : Yes
Format settings, ReFrames : 12 frames
Codec ID : V_MPEG4/ISO/AVC
Duration : 2h 11mn
Bit rate : 1 461 Kbps
Width : 880 pixels
Height : 374 pixels
Display aspect ratio : 2.35:1
Frame rate mode : Constant
Frame rate : 23.976 fps
Color space : YUV
Chroma subsampling : 4:2:0
Bit depth : 8 bits
Scan type : Progressive
Bits/(Pixel*Frame) : 0.185
Stream size : 1.31 GiB (86%)
Title : Метро
Writing library : x264 core 125 r2208 d9d2288
Encoding settings : cabac=1 / ref=12 / deblock=1:-3:-3 / analyse=0x3:0x133 / me=umh / subme=9 / psy=1 / psy_rd=1.10:0.05 / mixed_ref=1 / me_range=32 / chroma_me=1 / trellis=2 / 8x8dct=1 / cqm=0 / deadzone=21,11 / fast_pskip=0 / chroma_qp_offset=-3 / threads=6 / lookahead_threads=1 / sliced_threads=0 / nr=0 / decimate=1 / interlaced=0 / bluray_compat=0 / constrained_intra=0 / bframes=13 / b_pyramid=2 / b_adapt=2 / b_bias=0 / direct=3 / weightb=1 / open_gop=0 / weightp=2 / keyint=240 / keyint_min=23 / scenecut=40 / intra_refresh=0 / rc_lookahead=150 / rc=2pass / mbtree=1 / bitrate=1461 / ratetol=1.0 / qcomp=0.70 / qpmin=0 / qpmax=69 / qpstep=4 / cplxblur=20.0 / qblur=0.5 / vbv_maxrate=280000 / vbv_bufsize=20000 / nal_hrd=none / ip_ratio=1.35 / aq=1:1.00
Language : Russian
Default : Yes
Forced : No
Audio #2
ID : 2
Format : AC-3
Format/Info : Audio Coding 3
Mode extension : CM (complete main)
Format settings, Endianness : Big
Codec ID : A_AC3
Duration : 2h 11mn
Bit rate mode : Constant
Bit rate : 192 Kbps
Channel(s) : 2 channels
Channel positions : Front: L R
Sampling rate : 48.0 KHz
Bit depth : 16 bits
Compression mode : Lossy
Stream size : 181 MiB (12%)
Language : Russian
Default : Yes
Forced : Yes
Download / Скачать

Хотите скачать бесплатно? Зарегистрируйтесь на сайте (ссылка на регистрацию). Pirat.ca - самый быстрый торрент трекер в рунете!

Как скачивать  ·   Что такое торрент  ·   Рейтинг и ограничения

MEHANOID

Корсар

Пост 09-Мар-2013 19:59 (спустя 2 часа 47 минут)

[Q] 

прикольный фильмец но я бы сказал так -----на раз
[Профиль]  [ЛС] 

Пост 09-Мар-2013 20:16 (спустя 16 минут)

Топик был перенесен из форума Наше кино (Трюм) в форум Новинки (HD|DVD|BD|TV|SAT|PDTV| - Rips)

erchine
 

youfate

Корсар

Пост 09-Мар-2013 20:27 (спустя 27 минут)

[Q] 

Автор, СПАСИБО за оперативность!!!
[Профиль]  [ЛС] 

kinstintin

Гроза морей

Пост 09-Мар-2013 20:42 (спустя 14 минут)

[Q] 


не поеду в кинотеатр, дома посмотрю... cx
[Профиль]  [ЛС] 

bsd13

Шкипер

Пост 09-Мар-2013 21:10 (спустя 28 минут)

[Q] 

сенкс

_________________
0(*_*)0
[Профиль]  [ЛС] 

Alex-dix

Флибустьер

Пост 09-Мар-2013 21:37 (спустя 27 минут)

[Q] 

[Профиль]  [ЛС] 

byzzbyzz

Корсар

Пост 10-Мар-2013 01:41 (спустя 4 часа)

[Q] 

Один раз вполне можно посмотреть....героиня мать какая то пластиковая...а так нормально на разок,не какашка,как обычно....
[Профиль]  [ЛС] 

polyk

Флибустьер

Пост 10-Мар-2013 02:42 (спустя 1 час)

[Q] 

фильм супер!!рекомендую!!
[Профиль]  [ЛС] 

Nik DeBori

Морской Волк

Пост 10-Мар-2013 06:51 (спустя 4 часа)

[Q] 

Оперативно.
[Профиль]  [ЛС] 

TesLa_99

Флибустьер

250

Пост 10-Мар-2013 22:20 (спустя 15 часов)

[Q] 

начал смотреть в уг качестве, посмотрел минут 15, дальше на черный экран смотреть надоело, ща наверстаем упущенное=) лови бочку=)
[Профиль]  [ЛС] 

maksssa

Шкипер

20

Пост 10-Мар-2013 22:48 (спустя 28 минут)

[Q] 

Ожидал другого, но фильм получился ничего так.
[Профиль]  [ЛС] 

antibi1984

Лоцман

Пост 10-Мар-2013 23:17 (спустя 29 минут)

[Q] 

[Профиль]  [ЛС] 

Amphetamin

Лоцман

Пост 11-Мар-2013 18:14 (спустя 18 часов)

[Q] 

Наконец то можно скачать рип
[Профиль]  [ЛС] 

OleksBy

Корсар

Пост 11-Мар-2013 18:48 (спустя 34 минуты)

[Q] 

[Профиль]  [ЛС] 

_Marks_

Флибустьер

Пост 13-Мар-2013 17:09 (спустя 1 день 22 часа)

[Q] 

на разок отлично...
[Профиль]  [ЛС] 

Shubnikoff

Морской Волк

Пост 13-Мар-2013 18:18 (спустя 1 час 8 минут)

[Q] 

[Профиль]  [ЛС] 

crazyboomka

Лоцман

Пост 26-Мар-2013 20:15 (спустя 13 дней)

[Q] 

[Профиль]  [ЛС] 

лысый 9999

Морской Волк

Пост 27-Мар-2013 19:53 (спустя 23 часа)

[Q] 

ХОРОШИЙ ФИЛЬМ
[Профиль]  [ЛС] 

cssergey

Корсар

Пост 27-Мар-2013 21:15 (спустя 1 час 22 минуты)

[Q] 

[Профиль]  [ЛС] 

Alexxx05

Морской Волк

Пост 30-Мар-2013 07:07 (спустя 2 дня 9 часов)

[Q] 

четкий фильмец
[Профиль]  [ЛС] 

garryson

Морской Волк

10

Пост 30-Мар-2013 10:03 (спустя 2 часа 56 минут)

[Q] 

[Профиль]  [ЛС] 

levha35

Штурман

Пост 30-Мар-2013 16:00 (спустя 5 часов)

[Q] 

[Профиль]  [ЛС] 

druiddwnld

Лоцман

Пост 10-Апр-2013 20:15 (спустя 11 дней)

[Q] 

Бред новороссиянческий обыкновенный. anime32
[Профиль]  [ЛС] 

Пост 11-Апр-2013 13:55 (спустя 17 часов)

Топик был перенесен из форума Новинки (HD|DVD|BD| TV|SAT|PDTV| - Rips) в форум Российские фильмы

ara1205
 

Nemetz

Корсар

Пост 13-Апр-2013 12:39 (спустя 2 дня 16 часов)

[Q] 

Хороший фильм!
[Профиль]  [ЛС] 

vitas_79

Корсар

Пост 27-Апр-2013 22:17 (спустя 14 дней)

[Q] 

СПАСИ БО!!!
[Профиль]  [ЛС] 

Tapac84

Корсар

Пост 30-Июн-2013 10:47 (спустя 2 месяца 2 дня)

[Q] 

Фильм очень даже неплохой, ведь могут когда захотят )))
[Профиль]  [ЛС] 

ZmeyAlex

Лоцман

Пост 07-Июл-2013 09:51 (спустя 6 дней)

[Q] 

Отличный фильмец)))
[Профиль]  [ЛС] 

Chegan

Штурман

134

Пост 18-Янв-2014 20:31 (спустя 6 месяцев 11 дней)

[Q] 

Спасибо!!! фильм ни че так))смотреть можно

_________________
Труднее всего в жизни запомнить, какой мост надо перейти, а какой надо сжечь.
[Профиль]  [ЛС] 
Показать сообщения:    
Ответить на тему

Текущее время: Сегодня 18:30

Часовой пояс: GMT + 4



Вы не можете начинать темы
Вы не можете отвечать на сообщения
Вы не можете редактировать свои сообщения
Вы не можете удалять свои сообщения
Вы не можете голосовать в опросах
Вы не можете прикреплять файлы к сообщениям
Вы не можете скачивать файлы

▼ Вниз