ML
     
  Уважаемый Гость!
Вы можете поддержать проект и зарегистрироваться у наших партнеров - онлайн-стратегия MyLands. При регистрации в игре Вы получите код, который сможете активировать после регистрации на pirat.ca и получить 1000 дублонов.

Ваш код:
ec3b26eefbcdc72e08e9fd33c6846bb2ca10f8b1
 
     

Особенности национальной политики (Юрий Конопкин, Дмитрий Месхиев) [2003 г., комедия, DVDRip][internal release]

Ответить на тему
 
Автор
Сообщение

Пост 10-Мар-2013 11:31

[Q] 

megamastor

-Особенности национальной политики-- Производство: АТК Студио
Режиссер: Юрий Конопкин, Дмитрий Месхиев
Жанр: комедия
Год выпуска: 2003 г.
Продолжительность: 01:22:35
Российская премьера: 4 ноября 2003
В ролях: Алексей Булдаков, Виктор Бычков, Семен Стругачев, Сергей Русскин, Юрий Кузнецов, Сергей Гусинский, Константин Хабенский, Михаил Трухин, Михаил Пореченков, Андрей Зибров, Нина Усатова, Александр Тютрюмов и др.-Описание: Генерал Иволгин баллотируется на ответственный пост. Высокие рейтинги неизвестно откуда взявшегося наглого соперника приводят в замешательство конкурентов.
Разгадать секрет популярности генерала пытаются коммунисты, бандиты, бизнесмены, «агент влияния» Инна Усман и даже главный фээсбэшник страны Виктор Сергеевич, шаг за шагом доказывая в своем расследовании, что «политика — дело грязное»…-Сэмпл КиноПоиск
Качество видео: DVDRip
Контейнер: AVI
Видео кодек: XviD
Аудио кодек: AC3
Видео: 720х432, 2 081 Kbps, 25.000 fps
Аудио: 448 Kbps, 6 channels, 48.0 KHz
Cубтитры: отсутствуют
Format : AVI
Format/Info : Audio Video Interleave
File size : 1.46 GiB
Duration : 1h 22mn
Overall bit rate : 2 539 Kbps
Writing application : VirtualDubMod 1.5.10.3 | www.virtualdub-fr.org || (build 2550/release)
Writing library : VirtualDubMod build 2550/release
Video
ID : 0
Format : MPEG-4 Visual
Format profile : Advanced [email protected]
Format settings, BVOP : 2
Format settings, QPel : No
Format settings, GMC : No warppoints
Format settings, Matrix : Default (H.263)
Codec ID : XVID
Codec ID/Hint : XviD
Duration : 1h 22mn
Bit rate : 2 081 Kbps
Width : 720 pixels
Height : 432 pixels
Display aspect ratio : 1.667
Frame rate : 25.000 fps
Color space : YUV
Chroma subsampling : 4:2:0
Bit depth : 8 bits
Scan type : Progressive
Compression mode : Lossy
Bits/(Pixel*Frame) : 0.268
Stream size : 1.20 GiB (82%)
Writing library : XviD 1.2.1 (UTC 2008-12-04)
Audio
ID : 1
Format : AC-3
Format/Info : Audio Coding 3
Mode extension : CM (complete main)
Format settings, Endianness : Big
Codec ID : 2000
Duration : 1h 22mn
Bit rate mode : Constant
Bit rate : 448 Kbps
Channel(s) : 6 channels
Channel positions : Front: L C R, Side: L R, LFE
Sampling rate : 48.0 KHz
Bit depth : 16 bits
Compression mode : Lossy
Stream size : 265 MiB (18%)
Alignment : Split accross interleaves
Interleave, duration : 40 ms (1.00 video frame)
Interleave, preload duration : 500 ms
Download / Скачать

Хотите скачать бесплатно? Зарегистрируйтесь на сайте (ссылка на регистрацию). Pirat.ca - самый быстрый торрент трекер в рунете!

Как скачивать  ·   Что такое торрент  ·   Рейтинг и ограничения

Пост 10-Мар-2013 12:21 (спустя 50 минут)

Топик был перенесен из форума Наше кино (Трюм) в форум Российские фильмы

ara1205
 

Alingva

Гроза морей

18

Пост 10-Мар-2013 19:07 (спустя 7 часов)

[Q] 

Скриншот с названием фильма прям как призыв на баррикады!

_________________
Если Вам кажется что у Вас нимб над головой, то не обращайте на него внимание - это просто мания величия!
[Профиль]  [ЛС] 

UncleFather

Легенда

Пост 16-Мар-2013 10:02 (спустя 5 дней)

[Q] 


_________________
Одни боялись Пью, другие - Билли Бонса, а меня... меня боялся сам Флинт
[Профиль]  [ЛС] 

Elly_77

Морской Волк

Пост 19-Мар-2013 14:17 (спустя 3 дня)

[Q] 

[Профиль]  [ЛС] 

oleg55555

Штурман

Пост 24-Мар-2013 11:26 (спустя 4 дня)

[Q] 

Нестареющее, весёлое кино.
[Профиль]  [ЛС] 

alex denver71

Флибустьер

Пост 07-Янв-2015 20:31 (спустя 1 год 9 месяцев)

[Q] 

Автору респект!!! Фильм: На любителя
[Профиль]  [ЛС] 
Показать сообщения:    
Ответить на тему

Текущее время: Сегодня 03:50

Часовой пояс: GMT + 4



Вы не можете начинать темы
Вы не можете отвечать на сообщения
Вы не можете редактировать свои сообщения
Вы не можете удалять свои сообщения
Вы не можете голосовать в опросах
Вы не можете прикреплять файлы к сообщениям
Вы не можете скачивать файлы

▼ Вниз