ML
     
  Уважаемый Гость!
Вы можете поддержать проект и зарегистрироваться у наших партнеров - онлайн-стратегия MyLands. При регистрации в игре Вы получите код, который сможете активировать после регистрации на pirat.ca и получить 1000 дублонов.

Ваш код:
59354507ba913a0948d1a8f2e30f2e04c4cd7b9b
 
     

Особенности национальной охоты в зимний период (Александр Рогожкин) [2001 г., комедия, DVDRip][internal release]

Ответить на тему
 
Автор
Сообщение

Пост 10-Мар-2013 12:20

[Q] 

megamastor

-Особенности национальной охоты в зимний период-- Производство: УРУС-ФИЛЬМ
Режиссер: Александр Рогожкин
Жанр: комедия
Год выпуска: 2001 г.
Продолжительность: 01:13:04
Российская премьера: 13 июля 2001
В ролях: Виктор Бычков, Алексей Булдаков, Семён Стругачёв, Сергей Гусинский, Андрей Федорцов, Ирина Основина, Юрий Кузнецов, Андрей Зибров, Андрей Краско, Михаил Пореченков.-Описание: В провинции Фуцзян жил один человек по имени Ху Чжоу, и был он величайшим охотником. Не было ему равных во всей Поднебесной. Любого зверя или птицу мог изловить. Передал он свои знания людям, но никого не мог назвать своим учеником…
А на 13-м кордоне у Кузьмича все было спокойно. Пока не пожаловали к нему гости. С проверкой.-Сэмпл КиноПоиск
Качество видео: DVDRip
Контейнер: AVI
Видео кодек: XviD
Аудио кодек: AC3
Видео: 720х432, 2 277 Kbps, 25.000 fps
Аудио: 384 Kbps, 6 channels, 48.0 KHz
Cубтитры: отсутствуют
Format : AVI
Format/Info : Audio Video Interleave
File size : 1.36 GiB
Duration : 1h 13mn
Overall bit rate : 2 670 Kbps
Writing application : VirtualDubMod 1.5.10.3 | www.virtualdub-fr.org || (build 2550/release)
Writing library : VirtualDubMod build 2550/release
Video
ID : 0
Format : MPEG-4 Visual
Format profile : Advanced [email protected]
Format settings, BVOP : 2
Format settings, QPel : No
Format settings, GMC : No warppoints
Format settings, Matrix : Default (H.263)
Codec ID : XVID
Codec ID/Hint : XviD
Duration : 1h 13mn
Bit rate : 2 277 Kbps
Width : 720 pixels
Height : 432 pixels
Display aspect ratio : 1.667
Frame rate : 25.000 fps
Color space : YUV
Chroma subsampling : 4:2:0
Bit depth : 8 bits
Scan type : Progressive
Compression mode : Lossy
Bits/(Pixel*Frame) : 0.293
Stream size : 1.16 GiB (85%)
Writing library : XviD 1.2.1 (UTC 2008-12-04)
Audio
ID : 1
Format : AC-3
Format/Info : Audio Coding 3
Mode extension : CM (complete main)
Format settings, Endianness : Big
Codec ID : 2000
Duration : 1h 13mn
Bit rate mode : Constant
Bit rate : 384 Kbps
Channel(s) : 6 channels
Channel positions : Front: L C R, Side: L R, LFE
Sampling rate : 48.0 KHz
Bit depth : 16 bits
Compression mode : Lossy
Stream size : 201 MiB (14%)
Alignment : Split accross interleaves
Interleave, duration : 40 ms (1.00 video frame)
Interleave, preload duration : 500 ms
Download / Скачать

Хотите скачать бесплатно? Зарегистрируйтесь на сайте (ссылка на регистрацию). Pirat.ca - самый быстрый торрент трекер в рунете!

Как скачивать  ·   Что такое торрент  ·   Рейтинг и ограничения

Пост 10-Мар-2013 12:48 (спустя 28 минут)

Топик был перенесен из форума Наше кино (Трюм) в форум Российские фильмы

ara1205
 

UncleFather

Легенда

Пост 16-Мар-2013 09:17 (спустя 5 дней)

[Q] 


_________________
Одни боялись Пью, другие - Билли Бонса, а меня... меня боялся сам Флинт
[Профиль]  [ЛС] 

Antoshqa3

Морской Волк

Пост 22-Май-2013 23:02 (спустя 2 месяца 6 дней)

[Q] 

[Профиль]  [ЛС] 

pp2141

Гроза морей

Пост 02-Июн-2013 06:45 (спустя 10 дней)

[Q] 

[Профиль]  [ЛС] 

Zha-pol

Легенда

Пост 02-Янв-2014 11:38 (спустя 7 месяцев)

[Q] 

Хороший фильм Спасибо!!!

_________________
[Профиль]  [ЛС] 

alex denver71

Флибустьер

Пост 07-Янв-2015 20:26 (спустя 1 год)

[Q] 

Автору респект!!! Фильм Качают ВСЕ!!! !!!
[Профиль]  [ЛС] 
Показать сообщения:    
Ответить на тему

Текущее время: Сегодня 16:07

Часовой пояс: GMT + 4



Вы не можете начинать темы
Вы не можете отвечать на сообщения
Вы не можете редактировать свои сообщения
Вы не можете удалять свои сообщения
Вы не можете голосовать в опросах
Вы не можете прикреплять файлы к сообщениям
Вы не можете скачивать файлы

▼ Вниз