ML
     
  Уважаемый Гость!
Вы можете поддержать проект и зарегистрироваться у наших партнеров - онлайн-стратегия MyLands. При регистрации в игре Вы получите код, который сможете активировать после регистрации на pirat.ca и получить 1000 дублонов.

Ваш код:
4855957e17f50c5c1236a0f8c4492b2b0bba00a0
 
     

Измена (Кирилл Серебренников) [2012 г., триллер, драма, DVDRip]

Ответить на тему
 
Автор
Сообщение

Пост 11-Мар-2013 22:46

[Q] 

Gweg

-Измена-- Производство: Россия
Режиссер: Кирилл Серебренников
Жанр: триллер, драма
Год выпуска: 2012 г.
Продолжительность: 01:54:42
Российская премьера: 1 ноября 2012
Дата выхода DVD: 5 марта 2013, «Парадиз Медиа»
В ролях: Франциска Петри, Деян Лилич, Альбина Джанабаева, Андрей Щетинин, Артурс Скрастыньш, Гуна Зариня, Артур Бесчастный, Александра Нестерова, Валерий Горин, Ольга Альбанова-Описание: Двое случайных знакомых узнают о том, что их супруги являются любовниками. Это открытие заставляет их совершать поступки, на которые они не решились бы ранее.
Ревность или страсть, месть или прощение — герои ищут основы для новой жизни, но сделать это нелегко — измена подчиняет все их поступки своей логике.-

Качество видео: DVDRip
Контейнер: AVI
Видео кодек: XviD
Аудио кодек: AC3
Видео: 720x304 (2.37:1), 25 fps, XviD MPEG-4 ~2097 kbps avg, 0.38 bit/pixel
Аудио: 48 kHz, AC3 Dolby Digital, 6 ch, ~448.00 kbps avg
Cубтитры: отсутствуют
Формат : AVI
Формат/Информация : Audio Video Interleave
Профиль формата : OpenDML
Размер файла : 2,05 Гбайт
Продолжительность : 1 ч. 54 м.
Общий поток : 2558 Кбит/сек
Название фильма : Izmena 2012.DVDRip
Программа кодирования : VirtualDubMod 1.5.10.3 | www.virtualdub-fr.org || (build 2550/release)
Видео
Идентификатор : 0
Формат : MPEG-4 Visual
Профиль формата : Advanced [email protected]
Параметр BVOP формата : Нет
Параметр QPel формата : Нет
Параметр GMC формата : Без точки перехода
Параметр матрицы формата : Выборочная
Идентификатор кодека : XVID
Идентификатор кодека/Подсказка : XviD
Продолжительность : 1 ч. 54 м.
Битрейт : 2097 Кбит/сек
Ширина : 720 пикселей
Высота : 304 пикселя
Соотношение сторон : 2,35:1
Частота кадров : 25,000 кадров/сек
Цветовое пространство : YUV
Субдискретизация насыщенности : 4:2:0
Битовая глубина : 8 бит
Тип развёртки : Прогрессивная
Метод сжатия : С потерями
Бит/(Пиксели*Кадры) : 0.383
Размер потока : 1,68 Гбайт (82%)
Библиотека кодирования : XviD 1.2.1 (UTC 2008-12-04)
Аудио
Идентификатор : 1
Формат : AC-3
Формат/Информация : Audio Coding 3
Расширение режима : CM (complete main)
Параметр Endianness формата : Big
Идентификатор кодека : 2000
Продолжительность : 1 ч. 54 м.
Вид битрейта : Постоянный
Битрейт : 448 Кбит/сек
Каналы : 6 каналов
Расположение каналов : Front: L C R, Side: L R, LFE
Частота : 48,0 КГц
Битовая глубина : 16 бит
Метод сжатия : С потерями
Задержка видео : 1 с. 600 мс.
Размер потока : 367 Мбайт (18%)
Выравнивание : Разделение по промежуткам
Продолжительность промежутка : 40 мс. (1,00 видеокадр)
Время предзагрузки промежутка : 500 мс.
Download / Скачать

Хотите скачать бесплатно? Зарегистрируйтесь на сайте (ссылка на регистрацию). Pirat.ca - самый быстрый торрент трекер в рунете!

Как скачивать  ·   Что такое торрент  ·   Рейтинг и ограничения



Последний раз редактировалось: Gweg (2013-03-11 23:36), всего редактировалось 1 раз

Пост 11-Мар-2013 23:42 (спустя 56 минут)

Топик был перенесен из форума Наше кино (Трюм) в форум Новинки (HD|DVD|BD|TV|SAT|PDTV| - Rips)

erchine
 

_Marks_

Флибустьер

Пост 12-Мар-2013 17:31 (спустя 18 часов)

[Q] 

всего два мутноватых отзыва!( придется качать...
[Профиль]  [ЛС] 

Shubnikoff

Морской Волк

Пост 13-Мар-2013 18:19 (спустя 1 день)

[Q] 

[Профиль]  [ЛС] 

dellinspirion

Шкипер

Пост 13-Мар-2013 19:38 (спустя 1 час 19 минут)

[Q] 

Почитал отзывы и подумал, а может организовать раздачу именно этих двух минут?! )))) Качать не буду. Судя по всему фильм не очень.

_________________
[Профиль]  [ЛС] 

was_born_to_be_a_cat

Штурман

Пост 14-Мар-2013 03:55 (спустя 8 часов)

[Q] 

[Профиль]  [ЛС] 

_Marks_

Флибустьер

Пост 14-Мар-2013 17:08 (спустя 13 часов)

[Q] 

драма-как драма.
[Профиль]  [ЛС] 

Senidel

Шкипер

Пост 23-Мар-2013 18:15 (спустя 9 дней)

[Q] 

Сейчас заценим.
[Профиль]  [ЛС] 

Vovan_vikinger

Морской Волк

78

Пост 25-Мар-2013 09:05 (спустя 1 день 14 часов)

[Q] 

драма-как драма... мыльная опера...

_________________
[Профиль]  [ЛС] 

tester83

Штурман

Пост 31-Мар-2013 06:29 (спустя 5 дней)

[Q] 

чето хрень какая-то..нудно, не интересно... Смотрили с подругой, она аж уснула...
[Профиль]  [ЛС] 

Datchanin

Корсар

36

Пост 31-Мар-2013 12:20 (спустя 5 часов)

[Q] 

Спасибо, глянем.

_________________
[Профиль]  [ЛС] 

vovapowers

Морской Волк

Пост 03-Апр-2013 12:29 (спустя 3 дня)

[Q] 

отзывы не впечатляют
[Профиль]  [ЛС] 

YSPAN

Морской Волк

Пост 08-Апр-2013 11:09 (спустя 4 дня)

[Q] 

[Профиль]  [ЛС] 

Пост 14-Апр-2013 18:31 (спустя 6 дней)

Топик был перенесен из форума Новинки (HD|DVD|BD| TV|SAT|PDTV| - Rips) в форум Российские фильмы

ara1205
 

anton78

Морской Волк

Пост 16-Апр-2013 22:18 (спустя 8 дней)

[Q] 

не качать не буду.Ну на х
[Профиль]  [ЛС] 
Показать сообщения:    
Ответить на тему

Текущее время: Сегодня 06:09

Часовой пояс: GMT + 4



Вы не можете начинать темы
Вы не можете отвечать на сообщения
Вы не можете редактировать свои сообщения
Вы не можете удалять свои сообщения
Вы не можете голосовать в опросах
Вы не можете прикреплять файлы к сообщениям
Вы не можете скачивать файлы

▼ Вниз