ML
     
  Уважаемый Гость!
Вы можете поддержать проект и зарегистрироваться у наших партнеров - онлайн-стратегия MyLands. При регистрации в игре Вы получите код, который сможете активировать после регистрации на pirat.ca и получить 1000 дублонов.

Ваш код:
156f85568ae63e45e07ac461c96a83ba1a876b0a
 
     

Измена (Кирилл Серебренников) [2012 г., триллер, драма, DVDRip] Original (Rus) [лицензия]

Ответить на тему
 
Автор
Сообщение

Пост 14-Мар-2013 17:12

[Q] 

Jigsaw

 
-Измена-- Производство: Россия / Киностудия Соль, Кинокомпания «Слон»
Год выпуска: 2012 г.
Жанр: триллер, драма
Продолжительность: 01:54:42
Мировая премьера: 30 августа 2012
Дата выхода DVD: 5 марта 2013, «Парадиз Медиа»
Перевод: Не требуется [лицензия]
Режиссер: Кирилл Серебренников-В ролях: Франциска Петри, Деян Лилич, Альбина Джанабаева, Андрей Щетинин, Артурс Скрастыньш, Гуна Зариня, Артур Бесчастный, Александра Нестерова, Валерий Горин, Ольга Альбанова-Описание: Двое случайных знакомых узнают о том, что их супруги являются любовниками. Это открытие заставляет их совершать поступки, на которые они не решились бы ранее.Ревность или страсть, месть или прощение — герои ищут основы для новой жизни, но сделать это нелегко — измена подчиняет все их поступки своей логике.- -Качество видео: DVDRip
Контейнер: AVI
Видео кодек: XviD
Аудио кодек: AC3
Видео: MPEG4, XviD, 720x304 (2.35:1), 25.000 fps, 1 363 Kbps (0.249 bit/pixel)
Аудио: Rus: AC-3, 48.0 KHz, 6 ch, 448 Kbps, CBR (оригинал)
Cубтитры: отсутствуют
Общее
Полное имя : D:\Izmena.2012.O.DVDRip.1_45Gb.avi
Формат : AVI
Формат/Информация : Audio Video Interleave
Размер файла : 1,46 Гбайт
Продолжительность : 1 ч. 54 м.
Общий поток : 1821 Кбит/сек
Программа кодирования : VirtualDubMod 1.5.10.3 | www.virtualdub-fr.org || (build 2550/release)
Библиотека кодирования : VirtualDubMod build 2550/release
Видео
Идентификатор : 0
Формат : MPEG-4 Visual
Профиль формата : Advanced [email protected]
Параметр BVOP формата : Нет
Параметр QPel формата : Нет
Параметр GMC формата : Без точки перехода
Параметр матрицы формата : Выборочная
Идентификатор кодека : XVID
Идентификатор кодека/Подсказка : XviD
Продолжительность : 1 ч. 54 м.
Битрейт : 1363 Кбит/сек
Ширина : 720 пикселей
Высота : 304 пикселя
Соотношение сторон : 2,35:1
Частота кадров : 25,000 кадров/сек
Цветовое пространство : YUV
Субдискретизация насыщенности : 4:2:0
Битовая глубина : 8 бит
Тип развёртки : Прогрессивная
Метод сжатия : С потерями
Бит/(Пиксели*Кадры) : 0.249
Размер потока : 1,09 Гбайт (75%)
Библиотека кодирования : XviD 1.2.1 (UTC 2008-12-04)
Аудио
Идентификатор : 1
Формат : AC-3
Формат/Информация : Audio Coding 3
Расширение режима : CM (complete main)
Параметр Endianness формата : Big
Идентификатор кодека : 2000
Продолжительность : 1 ч. 54 м.
Вид битрейта : Постоянный
Битрейт : 448 Кбит/сек
Каналы : 6 каналов
Расположение каналов : Front: L C R, Side: L R, LFE
Частота : 48,0 КГц
Битовая глубина : 16 бит
Метод сжатия : С потерями
Задержка видео : 1 с. 600 мс.
Размер потока : 367 Мбайт (25%)
Выравнивание : Разделение по промежуткам
Продолжительность промежутка : 40 мс. (1,00 видеокадр)
Время предзагрузки промежутка : 500 мс.
- -
Download / Скачать

Хотите скачать бесплатно? Зарегистрируйтесь на сайте (ссылка на регистрацию). Pirat.ca - самый быстрый торрент трекер в рунете!

Как скачивать  ·   Что такое торрент  ·   Рейтинг и ограничения

Пост 14-Мар-2013 23:10 (спустя 5 часов)

Топик был перенесен из форума Зарубежное Кино (Трюм) в форум Новинки (HD|DVD|BD|TV|SAT|PDTV| - Rips)

ara1205
 

infiniti-r

Корсар

Пост 15-Мар-2013 14:34 (спустя 21 час)

[Q] 

Спасибо! Глянем и оценим! )
[Профиль]  [ЛС] 
Показать сообщения:    
Ответить на тему

Текущее время: Сегодня 22:00

Часовой пояс: GMT + 4



Вы не можете начинать темы
Вы не можете отвечать на сообщения
Вы не можете редактировать свои сообщения
Вы не можете удалять свои сообщения
Вы не можете голосовать в опросах
Вы не можете прикреплять файлы к сообщениям
Вы не можете скачивать файлы

▼ Вниз