ML
     
  Уважаемый Гость!
Вы можете поддержать проект и зарегистрироваться у наших партнеров - онлайн-стратегия MyLands. При регистрации в игре Вы получите код, который сможете активировать после регистрации на pirat.ca и получить 1000 дублонов.

Ваш код:
bc31d8aef74c92e19ad67e34a8fa63c3b9b812fb
 
     

Соло на саксофоне (Александр Кириенко) [2012 г., драма, DVDRip]

Ответить на тему
 
Автор
Сообщение

Пост 17-Мар-2013 08:57

[Q] 

aiden57

Гроза морей

-Соло на саксофоне-- Производство: Россия / Всемирные Русские Студии
Режиссер: Александр Кириенко
Жанр: драма
Год выпуска: 2012 г.
Продолжительность: 01:43:39
Российская премьера: 25 августа 2012
В ролях: Виталий Хаев, Алексей Серебряков, Константин Крюков, Евгения Хиривская, Елена Лядова-Описание: Владислав Лавров — владелец могущественной строительной империи. Ему во всем сопутствует удача — бизнес процветает, красавица жена делает головокружительную карьеру на эстраде, а любимая дочь — на телевидении. Но однажды в доме Лаврова появляется его давний друг — Саша Фролов. Он беден, смертельно болен, и все называют его Саша-Саксофон за виртуозную игру на инструменте. Этот человек за один день полностью разрушает незыблемую и отлаженную жизнь Лаврова. «Соло на саксофоне» будет открывать нам тайны этой семьи и этой дружбы одну за другой, а также главный секрет, который связывает бывших друзей, а ныне уголовника и строительного магната.-Сэмпл КиноПоиск
Качество видео: DVDRip
Контейнер: AVI
Видео кодек: XviD
Аудио кодек: AC3
Видео: XviD, 704x384 (16:9), 25.000 fps, 2 654 Kbps
Аудио: AC-3, 48.0 KHz, 2 ch, 192 Kbps
Cубтитры: отсутствуют
General
Complete name : G:\Торренты\aiden57\Соло на саксофоне\Solo.na.saksofone.2012.DVDRip.avi
Format : AVI
Format/Info : Audio Video Interleave
Format profile : OpenDML
File size : 2.07 GiB
Duration : 1h 43mn
Overall bit rate : 2 859 Kbps
Writing application : VirtualDubModRus 1.5.10.2 (build 2542/release)
Writing library : VirtualDubMod build 2542/release
Video
ID : 0
Format : MPEG-4 Visual
Format profile : Advanced [email protected]
Format settings, BVOP : 2
Format settings, QPel : No
Format settings, GMC : No warppoints
Format settings, Matrix : Default (H.263)
Muxing mode : Packed bitstream
Codec ID : XVID
Codec ID/Hint : XviD
Duration : 1h 43mn
Bit rate : 2 654 Kbps
Width : 704 pixels
Height : 384 pixels
Display aspect ratio : 1.85:1
Frame rate : 25.000 fps
Color space : YUV
Chroma subsampling : 4:2:0
Bit depth : 8 bits
Scan type : Progressive
Compression mode : Lossy
Bits/(Pixel*Frame) : 0.393
Stream size : 1.92 GiB (93%)
Writing library : XviD 73
Audio
ID : 1
Format : AC-3
Format/Info : Audio Coding 3
Mode extension : CM (complete main)
Format settings, Endianness : Big
Codec ID : 2000
Duration : 1h 43mn
Bit rate mode : Constant
Bit rate : 192 Kbps
Channel(s) : 2 channels
Channel positions : Front: L R
Sampling rate : 48.0 KHz
Bit depth : 16 bits
Compression mode : Lossy
Stream size : 142 MiB (7%)
Alignment : Split accross interleaves
Interleave, duration : 40 ms (1.00 video frame)
Interleave, preload duration : 500 ms
Download / Скачать

Хотите скачать бесплатно? Зарегистрируйтесь на сайте (ссылка на регистрацию). Pirat.ca - самый быстрый торрент трекер в рунете!

Как скачивать  ·   Что такое торрент  ·   Рейтинг и ограничения

Пост 17-Мар-2013 13:38 (спустя 4 часа)

Топик был перенесен из форума Наше кино (Трюм) в форум Российские фильмы

ara1205
 

Nemetz

Корсар

Пост 11-Апр-2013 06:58 (спустя 24 дня)

[Q] 

Как фильм? Отпишитесь, кто смотрел..
[Профиль]  [ЛС] 
Показать сообщения:    
Ответить на тему

Текущее время: Сегодня 11:58

Часовой пояс: GMT + 4



Вы не можете начинать темы
Вы не можете отвечать на сообщения
Вы не можете редактировать свои сообщения
Вы не можете удалять свои сообщения
Вы не можете голосовать в опросах
Вы не можете прикреплять файлы к сообщениям
Вы не можете скачивать файлы

▼ Вниз