ML
     
  Уважаемый Гость!
Вы можете поддержать проект и зарегистрироваться у наших партнеров - онлайн-стратегия MyLands. При регистрации в игре Вы получите код, который сможете активировать после регистрации на pirat.ca и получить 1000 дублонов.

Ваш код:
1a5b0a965618b2c406d4279ec9924ee6282c60cf
 
     

Пешаварский вальс (Тимур Бекмамбетов, Геннадий Каюмов) [1994 г., Военный, драма, боевик, SATRip]

Ответить на тему
 
Автор
Сообщение

Пост 17-Мар-2013 12:09

[Q] 

cergo

Гроза морей

-Пешаварский вальсЗапросив помощь по рации, они практически вызывают огонь на себя ...-- Производство: Россия
Режиссер: Тимур Бекмамбетов, Геннадий Каюмов
Жанр: Военный, драма, боевик
Год выпуска: 1994 г.
Продолжительность: 01:25:50
В ролях: Бэрри Кушнер, Виктор Вержбицкий, Геннадий Каюмов, Алексей Шемес, Сергей Плотников, Александр Пан, Юрий Королёв, Нина Жмеренецкая
-Описание: Фильм oб aфгaнcкoй вoйнe. Aнглийcкий жypнaлиcт и eгo дpyг - фpaнцyзcкий вpaч - eдyт в лaгepь, гдe нaxoдятcя плeнныe pyccкиe, чтoбы взять y ниx интepвью. Heoжидaннo плeнныe вoccтaют и зaxвaтывaют лaгepь. Внезапно они попадают в центр разгоревшегося мятежа, где царит хаос и трудно отличить друзей от врагов. В то время как доктор Дэвис ухаживает за ранеными, корреспондент Палмер запечетляет сцены героизма, измены и смятения... Tpaгизм cитyaции cocтoит в тoм, чтo вoccтaвшиe - нeoфициaльныe плeнныe, и пoтoмy, зaпpocив пoмoщь пo paции, oни пpaктичecки "вызывaют oгoнь нa ceбя"-
Качество видео: SATRip
Контейнер: AVI
Видео кодек: XviD
Аудио кодек: AC3
Видео: 720x544 (1.32:1), 25 fps, XviD build 50 ~2074 kbps avg, 0.21 bit/pixel
Аудио: 48 kHz, AC3 Dolby Digital, 2/0 (L,R) ch, ~192 kbps
Cубтитры: Английские (не отключаемые, Хардсаб)
Общее
Полное имя : D:\Архив\ФИЛЬМЫ\Peshavarskiy.Vals.1994.XviD.SATRip.avi
Формат : AVI
Формат/Информация : Audio Video Interleave
Размер файла : 1,36 Гбайт
Продолжительность : 1 ч. 25 м.
Общий поток : 2276 Кбит/сек
Программа кодирования : VirtualDubMod 1.5.10.2 (build 2540/release)
Библиотека кодирования : VirtualDubMod build 2540/release
Видео
Идентификатор : 0
Формат : MPEG-4 Visual
Профиль формата : Advanced [email protected]
Параметр BVOP формата : 1
Параметр QPel формата : Нет
Параметр GMC формата : Без точки перехода
Параметр матрицы формата : Default (H.263)
Идентификатор кодека : XVID
Идентификатор кодека/Подсказка : XviD
Продолжительность : 1 ч. 25 м.
Битрейт : 2074 Кбит/сек
Ширина : 720 пикселей
Высота : 544 пикселя
Соотношение сторон : 4:3
Частота кадров : 25,000 кадров/сек
Цветовое пространство : YUV
Субдискретизация насыщенности : 4:2:0
Битовая глубина : 8 бит
Тип развёртки : Прогрессивная
Метод сжатия : С потерями
Бит/(Пиксели*Кадры) : 0.212
Размер потока : 1,24 Гбайт (91%)
Библиотека кодирования : XviD 1.2.1 (UTC 2008-12-04)
Аудио
Идентификатор : 1
Формат : AC-3
Формат/Информация : Audio Coding 3
Расширение режима : CM (complete main)
Параметр Endianness формата : Big
Идентификатор кодека : 2000
Продолжительность : 1 ч. 25 м.
Вид битрейта : Постоянный
Битрейт : 192 Кбит/сек
Каналы : 2 канала
Расположение каналов : Front: L R
Частота : 48,0 КГц
Битовая глубина : 16 бит
Метод сжатия : С потерями
Размер потока : 118 Мбайт (8%)
Выравнивание : Разделение по промежуткам
Продолжительность промежутка : 40 мс. (1,00 видеокадр)
Время предзагрузки промежутка : 500 мс.
Download / Скачать

Хотите скачать бесплатно? Зарегистрируйтесь на сайте (ссылка на регистрацию). Pirat.ca - самый быстрый торрент трекер в рунете!

Как скачивать  ·   Что такое торрент  ·   Рейтинг и ограничения



Последний раз редактировалось: cergo (2013-03-17 14:31), всего редактировалось 2 раз(а)

sergey718

Корсар

Пост 17-Мар-2013 12:47 (спустя 37 минут)

[Q] 

[Профиль]  [ЛС] 

cergo ®

Гроза морей

20035

Пост 17-Мар-2013 12:48 (спустя 1 минута)

[Q] 

340314
картинка не очень ... но главное тема по моему ...
[Профиль]  [ЛС] 

Wolf111

57094

Пост 17-Мар-2013 13:42 (спустя 54 минуты)

[Q] 

[Профиль]  [ЛС] 

Пост 17-Мар-2013 14:41 (спустя 58 минут)

Топик был перенесен из форума Наше кино (Трюм) в форум Российские фильмы

ara1205
 

lis777

Корсар

Пост 17-Мар-2013 16:48 (спустя 3 часа)

[Q] 

как фильм?
[Профиль]  [ЛС] 
Показать сообщения:    
Ответить на тему

Текущее время: Сегодня 23:51

Часовой пояс: GMT + 4



Вы не можете начинать темы
Вы не можете отвечать на сообщения
Вы не можете редактировать свои сообщения
Вы не можете удалять свои сообщения
Вы не можете голосовать в опросах
Вы не можете прикреплять файлы к сообщениям
Вы не можете скачивать файлы

▼ Вниз