ML
     
  Уважаемый Гость!
Вы можете поддержать проект и зарегистрироваться у наших партнеров - онлайн-стратегия MyLands. При регистрации в игре Вы получите код, который сможете активировать после регистрации на pirat.ca и получить 1000 дублонов.

Ваш код:
156f85568ae63e45e07ac461c96a83ba1a876b0a
 
     

Что творят мужчины! (Сарик Андреасян) [2013 г., комедия, BDRip] Original [лицензия]

Страницы :  1, 2  След.

Ответить на тему
 
Автор
Сообщение

Пост 21-Мар-2013 20:32

[Q] 

Jigsaw

 
-Что творят мужчины!
«Секс на вылет»
-- Производство: Россия / Enjoy Movies
Год выпуска: 2013 г.
Жанр: комедия
Продолжительность: 01:26:36
Мировая премьера: 28 февраля 2013
Перевод: Не требуется [лицензия]
Режиссер: Сарик Андреасян-В ролях: Таир Мамедов, Константин Крюков, Роман Юнусов, Гавриил Гордеев, Равшана Куркова, Анна Хилькевич, Кристина Асмус, Наталия Медведева, Екатерина Скулкина, Даша Астафьева-Описание: Неприступные женщины, полмиллиона долларов и четверо героев которым предстоит принять участие в игре «Секс-лото», организованное экстравагантным миллионером. Суть игры — за пять дней соблазнить как можно больше женщин на морском курорте. Получив задания, великолепная четверка бросается в бой. Но все цели совсем не простые — бабушка, жена олигарха, девственница, феминистка, сектантка — и приз получит только лучший. Каждый применит свой фирменный арсенал, и все будут близки к тому, чтобы получить заветный куш, записав новых жертв в список своих мужских побед. Но неожиданно в «дело секса» вмешается любовь.-
Качество видео: BDRip
Контейнер: AVI
Видео кодек: XviD
Аудио кодек: AC3
Видео: MPEG4, XviD, 720x320 (2.25:1), 24.000 fps, 1802 Kbps (0.326 bit/pixel)
Аудио: Rus: AC-3, 48.0 KHz, 6 ch, 448 Kbps, CBR (оригинал)
Cубтитры: отсутствуют
Общее
Полное имя : D:\Chto.tvorjat.muzhchiny.2012.BDRip.avi
Формат : AVI
Формат/Информация : Audio Video Interleave
Размер файла : 1,37 Гбайт
Продолжительность : 1 ч. 26 м.
Общий поток : 2259 Кбит/сек
Программа кодирования : VirtualDubMod 1.5.10.2 (build 2540/release)
Видео
Идентификатор : 0
Формат : MPEG-4 Visual
Профиль формата : Advanced [email protected]
Параметр BVOP формата : 1
Параметр QPel формата : Нет
Параметр GMC формата : Без точки перехода
Параметр матрицы формата : Выборочная
Идентификатор кодека : XVID
Идентификатор кодека/Подсказка : XviD
Продолжительность : 1 ч. 26 м.
Битрейт : 1802 Кбит/сек
Ширина : 720 пикселей
Высота : 320 пикселей
Соотношение сторон : 2,25:1
Частота кадров : 24,000 кадра/сек
Цветовое пространство : YUV
Субдискретизация насыщенности : 4:2:0
Битовая глубина : 8 бит
Тип развёртки : Прогрессивная
Метод сжатия : С потерями
Бит/(Пиксели*Кадры) : 0.326
Размер потока : 1,09 Гбайт (80%)
Библиотека кодирования : XviD 1.2.1 (UTC 2008-12-04)
Аудио
Идентификатор : 1
Формат : AC-3
Формат/Информация : Audio Coding 3
Расширение режима : CM (complete main)
Параметр Endianness формата : Big
Идентификатор кодека : 2000
Продолжительность : 1 ч. 26 м.
Вид битрейта : Постоянный
Битрейт : 448 Кбит/сек
Каналы : 6 каналов
Расположение каналов : Front: L C R, Side: L R, LFE
Частота : 48,0 КГц
Битовая глубина : 16 бит
Метод сжатия : С потерями
Размер потока : 278 Мбайт (20%)
Выравнивание : Разделение по промежуткам
Продолжительность промежутка : 42 мс. (1,00 видеокадр)
Время предзагрузки промежутка : 500 мс.
- -
Download / Скачать

Хотите скачать бесплатно? Зарегистрируйтесь на сайте (ссылка на регистрацию). Pirat.ca - самый быстрый торрент трекер в рунете!

Как скачивать  ·   Что такое торрент  ·   Рейтинг и ограничения

Пост 21-Мар-2013 20:53 (спустя 21 минута)

Топик был перенесен из форума Зарубежное Кино (Трюм) в форум Новинки (HD|DVD|BD|TV|SAT|PDTV| - Rips)

erchine
 

Тёркин

Морской Волк

Пост 21-Мар-2013 21:00 (спустя 27 минут)

[Q] 

[Профиль]  [ЛС] 

kinstintin

Гроза морей

Пост 21-Мар-2013 21:11 (спустя 11 минут)

[Q] 

[Профиль]  [ЛС] 

Dath Garret

Лоцман

Пост 21-Мар-2013 23:13 (спустя 2 часа 1 минута)

[Q] 

[Профиль]  [ЛС] 

watsonix

Флибустьер

Пост 21-Мар-2013 23:47 (спустя 33 минуты)

[Q] 

[Профиль]  [ЛС] 

Bile

4188

Пост 22-Мар-2013 00:36 (спустя 49 минут)

[Q] 

Трейлер лучше чем фильм.
[Профиль]  [ЛС] 

kmv01

Гроза морей

Пост 22-Мар-2013 07:13 (спустя 6 часов)

[Q] 

Спасибо!
[Профиль]  [ЛС] 

s_s

Гроза морей

Пост 22-Мар-2013 11:53 (спустя 4 часа)

[Q] 

заценим, спасибо! :)

_________________
в себе самом добра со злом
[Профиль]  [ЛС] 

tester83

Штурман

Пост 22-Мар-2013 12:33 (спустя 40 минут)

[Q] 

а нам понравился! Поржать вечерком-то что надо!)
[Профиль]  [ЛС] 

Kenroku

Лоцман

Пост 22-Мар-2013 13:49 (спустя 1 час 15 минут)

[Q] 

[Профиль]  [ЛС] 

UncleFather

Легенда

Пост 22-Мар-2013 16:08 (спустя 2 часа 18 минут)

[Q] 


_________________
Одни боялись Пью, другие - Билли Бонса, а меня... меня боялся сам Флинт
[Профиль]  [ЛС] 

KoJl6aca

Морской Волк

Пост 22-Мар-2013 17:01 (спустя 53 минуты)

[Q] 

пропадает звук местами

_________________
[Профиль]  [ЛС] 

Antin

Морской Волк

Пост 22-Мар-2013 17:09 (спустя 8 минут)

[Q] 

[Профиль]  [ЛС] 

westup

Штурман

Пост 22-Мар-2013 17:12 (спустя 3 минуты)

[Q] 


_________________
[Профиль]  [ЛС] 

MaLbIsh

Морской Волк

Пост 22-Мар-2013 18:17 (спустя 1 час 4 минуты)

[Q] 

Рейтинг конечно... Но посмотреть нада...
[Профиль]  [ЛС] 

zDoCz

Шкипер

Пост 22-Мар-2013 23:26 (спустя 5 часов)

[Q] 

[Профиль]  [ЛС] 

Taika

Морской Волк

Пост 23-Мар-2013 00:30 (спустя 1 час 3 минуты)

[Q] 

[Профиль]  [ЛС] 

Саша1959

Флибустьер

Пост 23-Мар-2013 00:52 (спустя 22 минуты)

[Q] 

Супер
спасибо
[Профиль]  [ЛС] 

PaCiEnT

Лоцман

Пост 23-Мар-2013 01:14 (спустя 21 минута)

[Q] 

Никакой фильм. Просто потраченная плёнка.
[Профиль]  [ЛС] 

jesus-w

Корсар

Пост 23-Мар-2013 10:09 (спустя 8 часов)

[Q] 

[Профиль]  [ЛС] 

youfate

Корсар

Пост 23-Мар-2013 14:00 (спустя 3 часа)

[Q] 

[Профиль]  [ЛС] 

broas

Штурман

Пост 23-Мар-2013 15:44 (спустя 1 час 43 минуты)

[Q] 

Давно жду в качестве

_________________
[Профиль]  [ЛС] 

SacredWolf

Морской Волк

Пост 24-Мар-2013 15:26 (спустя 23 часа)

[Q] 


спасибо!
веселый фильмец be
хоть немного и тупой
[Профиль]  [ЛС] 

oldrevan

Шкипер

Пост 24-Мар-2013 16:28 (спустя 1 час 1 минута)

[Q] 

[Профиль]  [ЛС] 

Voland57

Корсар

Пост 24-Мар-2013 19:02 (спустя 2 часа 34 минуты)

[Q] 

Спасибо!!
[Профиль]  [ЛС] 

MustDied

Морской Волк

411

Пост 24-Мар-2013 19:04 (спустя 1 минута)

[Q] 

Спасибо! Давно ждал качество

_________________
Toyota - управляй мечтой
ВАЗ - не ссы доедим !
[Профиль]  [ЛС] 

vampytch

Корсар

417

Пост 24-Мар-2013 19:59 (спустя 54 минуты)

[Q] 


_________________
Niemand außer uns!
[Профиль]  [ЛС] 

lusikov

Шкипер

Пост 24-Мар-2013 20:26 (спустя 26 минут)

[Q] 

10 минут и фильм в корзине.
[Профиль]  [ЛС] 

Processor

Корсар

68

Пост 25-Мар-2013 09:57 (спустя 13 часов)

[Q] 

[Профиль]  [ЛС] 
Показать сообщения:    
Ответить на тему

Текущее время: Сегодня 21:57

Часовой пояс: GMT + 4



Вы не можете начинать темы
Вы не можете отвечать на сообщения
Вы не можете редактировать свои сообщения
Вы не можете удалять свои сообщения
Вы не можете голосовать в опросах
Вы не можете прикреплять файлы к сообщениям
Вы не можете скачивать файлы

▼ Вниз