ML
     
  Уважаемый Гость!
Вы можете поддержать проект и зарегистрироваться у наших партнеров - онлайн-стратегия MyLands. При регистрации в игре Вы получите код, который сможете активировать после регистрации на pirat.ca и получить 1000 дублонов.

Ваш код:
21acd5966619d49ad0b90c3305467b4646cc11a8
 
     

Беглецы (Армен Назикян) [2011 г., драма, криминал, DVDRip] Original (Rus) [лицензия]

Ответить на тему
 
Автор
Сообщение

Пост 29-Мар-2013 16:18

[Q] 

Jigsaw

 
-Беглецы -- Производство: Россия / Триикс Медиа, Телекомпания НТВ
Год выпуска: 2011 г.
Жанр: драма, криминал
Продолжительность: 01:31:11
Российская премьера: 20 мая 2011
Перевод: Не требуется [лицензия]
Режиссер: Армен Назикян-В ролях: Максим Дрозд, Юлия Бедарева, Иван Батарев, Игорь Головин, Глаша Снятовская, Михаил Соловьев, Андрей Родимов, Игорь Павлов, Татьяна Пилецкая, Юрис Лауциньш-Описание: Одинокий мужчина 45 лет, тренер по боксу Семён Евгеньевич всю свою жизнь тренирует подростков. Однажды к нему приходит его старый друг — Николай, он богатый и известный человек. Николай говорит Семёну о своей маленькой восьмилетней дочери. Жена Николая Ася умерла несколько лет назад, и у него осталась маленькая дочка Мила. Когда-то Николай увёл Асю у Семёна и с тех пор они больше не общались. Теперь Николай просит Семёна позаботиться о Миле, если с ним, Николаем, что-нибудь случится, ведь ему больше не кому доверять кроме старого друга. В тот же день Николай погибает.- -Качество видео: DVDRip
Контейнер: AVI
Видео кодек: XviD
Аудио кодек: AC3
Видео: MPEG4, XviD, 720x384 (1.875), 25.000 fps, 1 687 Kbps (0.244 bit/pixel)
Аудио: Rus: AC-3, 48.0 KHz, 6 ch, 448 Kbps, CBR (оригинал)
Cубтитры: отсутствуют
Общее
Полное имя : D:\Beglecy.2011.DVDRip[pirat.ca].avi
Формат : AVI
Формат/Информация : Audio Video Interleave
Размер файла : 1,37 Гбайт
Продолжительность : 1 ч. 31 м.
Общий поток : 2145 Кбит/сек
Название фильма : Beglecy.2011.DVDRip[pirat.ca]
Жанр : Drama/Crime/Romance
Программа кодирования : VirtualDubMod 1.5.10.3 | www.virtualdub-fr.org || (build 2550/release)
Формат оригинала/Имя : Movie
Видео
Идентификатор : 0
Формат : MPEG-4 Visual
Профиль формата : Advanced [email protected]
Параметр BVOP формата : 1
Параметр QPel формата : Нет
Параметр GMC формата : Без точки перехода
Параметр матрицы формата : Выборочная
Идентификатор кодека : XVID
Идентификатор кодека/Подсказка : XviD
Продолжительность : 1 ч. 31 м.
Битрейт : 1687 Кбит/сек
Ширина : 720 пикселей
Высота : 384 пикселя
Соотношение сторон : 1,85:1
Частота кадров : 25,000 кадров/сек
Цветовое пространство : YUV
Субдискретизация насыщенности : 4:2:0
Битовая глубина : 8 бит
Тип развёртки : Прогрессивная
Метод сжатия : С потерями
Бит/(Пиксели*Кадры) : 0.244
Размер потока : 1,07 Гбайт (79%)
Библиотека кодирования : XviD 1.2.1 (UTC 2008-12-04)
Аудио
Идентификатор : 1
Формат : AC-3
Формат/Информация : Audio Coding 3
Расширение режима : CM (complete main)
Параметр Endianness формата : Big
Идентификатор кодека : 2000
Продолжительность : 1 ч. 31 м.
Вид битрейта : Постоянный
Битрейт : 448 Кбит/сек
Каналы : 6 каналов
Расположение каналов : Front: L C R, Side: L R, LFE
Частота : 48,0 КГц
Битовая глубина : 16 бит
Метод сжатия : С потерями
Размер потока : 292 Мбайт (21%)
Выравнивание : Разделение по промежуткам
Продолжительность промежутка : 40 мс. (1,00 видеокадр)
Время предзагрузки промежутка : 500 мс.
- -
Download / Скачать

Хотите скачать бесплатно? Зарегистрируйтесь на сайте (ссылка на регистрацию). Pirat.ca - самый быстрый торрент трекер в рунете!

Как скачивать  ·   Что такое торрент  ·   Рейтинг и ограничения

Дядя Витя

53938

Пост 30-Мар-2013 10:56 (спустя 18 часов)

[Q] 


_________________
?
[Профиль]  [ЛС] 

Nemetz

Корсар

Пост 11-Апр-2013 06:20 (спустя 11 дней)

[Q] 

Судя по описанию дикий экшен bm
[Профиль]  [ЛС] 
Показать сообщения:    
Ответить на тему

Текущее время: Сегодня 23:17

Часовой пояс: GMT + 4



Вы не можете начинать темы
Вы не можете отвечать на сообщения
Вы не можете редактировать свои сообщения
Вы не можете удалять свои сообщения
Вы не можете голосовать в опросах
Вы не можете прикреплять файлы к сообщениям
Вы не можете скачивать файлы

▼ Вниз