ML
     
  Уважаемый Гость!
Вы можете поддержать проект и зарегистрироваться у наших партнеров - онлайн-стратегия MyLands. При регистрации в игре Вы получите код, который сможете активировать после регистрации на pirat.ca и получить 1000 дублонов.

Ваш код:
2fd4e750dd89cae3a36ea360f2b345ccfeb562d3
 
     

Оборотень в погонах (Александр Будённый) [2013 г., детектив, WEB-DLRip] Original (Rus)

Ответить на тему
 
Автор
Сообщение

Пост 05-Апр-2013 15:25

[Q] 

Jigsaw

 
-Оборотень в погонах -- Производство: Украина / Film UA
Год выпуска: 2013 г.
Жанр: детектив
Продолжительность: 01:19:06
Перевод: Не требуется
Режиссер: Александр Будённый-В ролях: Вячеслав Разбегаев, Анастасия Макеева, Михаил Жигалов, Дмитрий Суржиков, Виктор Сарайкин, Олег Примогенов, Антонина Макарчук, Андрей Павленко-Описание: Самые сложные, опасные и загадочные преступления, распутать которые, кажется, не под силу обычному человеку, поручают капитану Рыкову. Его острый ум, многолетний опыт, здоровый цинизм и молниеносная реакция не только способствуют высокой раскрываемости, но и становятся основой для неоднозначной репутации. Настолько неоднозначной, что некоторые его знакомые склонны считать, что капитан Рыков, как бы это точнее выразиться, и не человек вовсе… Но кто же он на самом деле?- -Качество видео: WEB-DLRip
Контейнер: AVI
Видео кодек: XviD
Аудио кодек: AC3
Видео: MPEG4, XviD, 720x400 (16:9), 25.000 fps, 2 276 Kbps (0.316 bit/pixel)
Аудио: Rus: AC-3, 48.0 KHz, 2 ch, 192 Kbps, CBR (оригинал)
Cубтитры: отсутствуют
Общее
Полное имя : D:\Oboroten.v.pogonax.2012.WEB-DLRip[pirat.ca].avi
Формат : AVI
Формат/Информация : Audio Video Interleave
Размер файла : 1,37 Гбайт
Продолжительность : 1 ч. 19 м.
Общий поток : 2478 Кбит/сек
Программа кодирования : VirtualDubMod 1.5.10.3 | www.virtualdub-fr.org || (build 2550/release)
Библиотека кодирования : VirtualDubMod build 2550/release
Видео
Идентификатор : 0
Формат : MPEG-4 Visual
Профиль формата : Advanced [email protected]
Параметр BVOP формата : 2
Параметр QPel формата : Нет
Параметр GMC формата : Без точки перехода
Параметр матрицы формата : Default (MPEG)
Идентификатор кодека : XVID
Идентификатор кодека/Подсказка : XviD
Продолжительность : 1 ч. 19 м.
Битрейт : 2276 Кбит/сек
Ширина : 720 пикселей
Высота : 400 пикселей
Соотношение сторон : 16:9
Частота кадров : 25,000 кадров/сек
Цветовое пространство : YUV
Субдискретизация насыщенности : 4:2:0
Битовая глубина : 8 бит
Тип развёртки : Прогрессивная
Метод сжатия : С потерями
Бит/(Пиксели*Кадры) : 0.316
Размер потока : 1,26 Гбайт (92%)
Библиотека кодирования : XviD 1.2.1 (UTC 2008-12-04)
Аудио
Идентификатор : 1
Формат : AC-3
Формат/Информация : Audio Coding 3
Расширение режима : CM (complete main)
Параметр Endianness формата : Big
Идентификатор кодека : 2000
Продолжительность : 1 ч. 19 м.
Вид битрейта : Постоянный
Битрейт : 192 Кбит/сек
Каналы : 2 канала
Расположение каналов : Front: L R
Частота : 48,0 КГц
Битовая глубина : 16 бит
Метод сжатия : С потерями
Размер потока : 109 Мбайт (8%)
Выравнивание : Разделение по промежуткам
Продолжительность промежутка : 40 мс. (1,00 видеокадр)
Время предзагрузки промежутка : 500 мс.
- -
Download / Скачать

Хотите скачать бесплатно? Зарегистрируйтесь на сайте (ссылка на регистрацию). Pirat.ca - самый быстрый торрент трекер в рунете!

Как скачивать  ·   Что такое торрент  ·   Рейтинг и ограничения



Последний раз редактировалось: Jigsaw (2013-04-05 15:36), всего редактировалось 1 раз

Саша1959

Флибустьер

Пост 05-Апр-2013 16:59 (спустя 1 час 34 минуты)

[Q] 

хохлы тоже могут снимать
[Профиль]  [ЛС] 

klas14

Корсар

Пост 05-Апр-2013 20:09 (спустя 3 часа)

[Q] 

az

_________________
[Профиль]  [ЛС] 

klas14

Корсар

Пост 05-Апр-2013 20:13 (спустя 3 минуты)

[Q] 


_________________
[Профиль]  [ЛС] 

Пост 05-Апр-2013 21:04 (спустя 51 минута)

Топик был перенесен из форума Наше кино (Трюм) в форум Новинки (HD|DVD|BD|TV|SAT|PDTV| - Rips)

erchine
 

oper73

Морской Волк

Пост 05-Апр-2013 23:27 (спустя 3 часа)

[Q] 

Второй скриншот страшнай... ca ca bc
[Профиль]  [ЛС] 

sergokov

Флибустьер

754

Пост 06-Апр-2013 06:39 (спустя 7 часов)

[Q] 

[Профиль]  [ЛС] 

_Marks_

Флибустьер

Пост 06-Апр-2013 07:42 (спустя 1 час 2 минуты)

[Q] 

это экранка или нет,качать стоит???
[Профиль]  [ЛС] 

Pirat177

Корсар

Пост 06-Апр-2013 10:48 (спустя 3 часа)

[Q] 

[Профиль]  [ЛС] 

Jigsaw ®

Пост 06-Апр-2013 11:23 (спустя 34 минуты)

[Q] 

351383это экранка или нет,качать стоит???
Нет. Давайте почитаем кое-что
WEB-DLRip:
Это запись трансляции через Интернет. На данный момент большинство исходного материала берется с платной службы iTunes Store. Из явных плюсов: отсутствие всевозможных логотипов, эпизодически всплывающего телевизионного мусора и присутствие финальных титров. В целом, это новый вид рипов, не уступающих по качеству DVDRipам.
Думаю стало яснее.... ct
 

gr71silver

Корсар

Пост 06-Апр-2013 13:05 (спустя 1 час 42 минуты)

[Q] 

Спасибо!
[Профиль]  [ЛС] 

vik238

Корсар

Пост 06-Апр-2013 17:32 (спустя 4 часа)

[Q] 

[Профиль]  [ЛС] 

serafim7

Корсар

99

Пост 06-Апр-2013 19:22 (спустя 1 час 49 минут)

[Q] 

[Профиль]  [ЛС] 

chuckerman

Штурман

Пост 06-Апр-2013 20:25 (спустя 1 час 3 минуты)

[Q] 

Задумка интересная, но как всегда на скромный бюджет блокбастер не снимешь. Хохлам Респект!!! Молодцы!!!
[Профиль]  [ЛС] 

Дмитров

Морской Волк

Пост 07-Апр-2013 20:40 (спустя 1 день)

[Q] 

Хороший фильм! Есть надежда на продолжение? Где скачать?
[Профиль]  [ЛС] 

YSPAN

Морской Волк

Пост 08-Апр-2013 09:41 (спустя 13 часов)

[Q] 

[Профиль]  [ЛС] 

Berar

Корсар

Пост 08-Апр-2013 17:46 (спустя 8 часов)

[Q] 

[Профиль]  [ЛС] 

bs_z03

Шкипер

Пост 08-Апр-2013 20:07 (спустя 2 часа 21 минута)

[Q] 

мне фильм понравился
[Профиль]  [ЛС] 

lis777

Корсар

Пост 12-Апр-2013 14:01 (спустя 3 дня)

[Q] 

[Профиль]  [ЛС] 

Nemetz

Корсар

Пост 13-Апр-2013 12:42 (спустя 22 часа)

[Q] 

Для любителей такого жанра и русско-хохляцких фильмов, покатит)
[Профиль]  [ЛС] 

sandman1973

Гроза морей

2129

Пост 18-Апр-2013 07:29 (спустя 4 дня)

[Q] 

Нормальный фильм! Доставил... ay
Есть намек на "...ту би континюед"

_________________

[Профиль]  [ЛС] 

lkas1010

Корсар

Пост 12-Апр-2014 22:38 (спустя 11 месяцев 24 дня)

[Q] 

Спасибо! Супер!
[Профиль]  [ЛС] 

Scorpion7474

Флибустьер

Пост 16-Апр-2014 10:17 (спустя 3 дня)

[Q] 

судя по отзывам фильм смотреть можно. авансом спасибо
[Профиль]  [ЛС] 
Показать сообщения:    
Ответить на тему

Текущее время: Сегодня 14:12

Часовой пояс: GMT + 4



Вы не можете начинать темы
Вы не можете отвечать на сообщения
Вы не можете редактировать свои сообщения
Вы не можете удалять свои сообщения
Вы не можете голосовать в опросах
Вы не можете прикреплять файлы к сообщениям
Вы не можете скачивать файлы

▼ Вниз