ML
     
  Уважаемый Гость!
Вы можете поддержать проект и зарегистрироваться у наших партнеров - онлайн-стратегия MyLands. При регистрации в игре Вы получите код, который сможете активировать после регистрации на pirat.ca и получить 1000 дублонов.

Ваш код:
1a5b0a965618b2c406d4279ec9924ee6282c60cf
 
     

45 секунд (Владимир Басов мл., Ольга Басова) [2013 г., мелодрама, SATRip] Original (Rus)

Ответить на тему
 
Автор
Сообщение

Пост 08-Апр-2013 06:47

[Q] 

Jigsaw

 
-45 секунд -- Производство: Россия / Триикс Медиа
Год выпуска: 2013 г.
Жанр: мелодрама
Продолжительность: 01:34:25
Мировая премьера: 24 марта 2013
Перевод: Не требуется
Режиссер: Владимир Басов мл., Ольга Басова-В ролях: Ольга Ломоносова, Григорий Антипенко, Алиса Гребенщикова, Андрей Казаков, Александр Константинов, Юрий Смирнов, Светлана Фролова, Анатолий Кот- -Описание: Главная героиня - Татьяна Чернигова - успешная бизнес-леди, бывшая бесстрашная альпинистка, тяжело переживает семейную драму: неудачные попытки родить ребенка. Беда не приходит одна, и на фоне психологических переживаний героини разыгрывается криминально-детективная трагедия, виновницей которой, по мнению свидетелей и участников, становится она... В критической для Тани ситуации ярче всего проявляются истинные чувства близких и родных людей и к ней самой и друг к другу: отца - одинокого пенсионера, мужа Дмитрия - человека эгоистичного и неискреннего, серьезного и смелого альпиниста Дениса, "лучшей" подруги - Аллы, адвоката Бельского и др. Любовь и предательство, понятия о человеческом достоинстве, чести и совести, мужестве и долге раскрываются в характерах и поступках этих героев.- -Качество видео: SATRip
Контейнер: AVI
Видео кодек: XviD
Аудио кодек: AC3
Видео: 704x400 (1.76:1), 25 fps, DivX Codec 6.8.5/6.9.1 ~2000 kbps avg, 0.28 bit/pixel
Аудио: Rus: 48 kHz, MPEG Layer 3, 2 ch, ~128.00 kbps avg (оригинал)
Cубтитры: отсутствуют
Общее
Полное имя : D:\45.sekund.SATRip.avi
Формат : AVI
Формат/Информация : Audio Video Interleave
Размер файла : 1,41 Гбайт
Продолжительность : 1 ч. 34 м.
Общий поток : 2138 Кбит/сек
Программа кодирования : VirtualDubMod 1.5.10.2 (build 2540/release)
Библиотека кодирования : VirtualDub build 29808/release
Видео
Идентификатор : 0
Формат : MPEG-4 Visual
Параметр BVOP формата : 1
Параметр QPel формата : Нет
Параметр GMC формата : Без точки перехода
Параметр матрицы формата : Default (H.263)
Режим смешивания : Сжатый битовый поток
Идентификатор кодека : DX50
Идентификатор кодека/Подсказка : DivX 5
Продолжительность : 1 ч. 34 м.
Битрейт : 2000 Кбит/сек
Ширина : 704 пикселя
Высота : 400 пикселей
Соотношение сторон : 16:9
Частота кадров : 25,000 кадров/сек
Цветовое пространство : YUV
Субдискретизация насыщенности : 4:2:0
Битовая глубина : 8 бит
Тип развёртки : Прогрессивная
Метод сжатия : С потерями
Бит/(Пиксели*Кадры) : 0.284
Размер потока : 1,32 Гбайт (94%)
Библиотека кодирования : DivX 6.8.5 (UTC 2009-08-20)
Аудио
Идентификатор : 1
Формат : MPEG Audio
Версия формата : Version 1
Профиль формата : Layer 3
Режим : Joint stereo
Идентификатор кодека : 55
Идентификатор кодека/Подсказка : MP3
Продолжительность : 1 ч. 34 м.
Вид битрейта : Постоянный
Битрейт : 128 Кбит/сек
Каналы : 2 канала
Частота : 48,0 КГц
Метод сжатия : С потерями
Размер потока : 86,5 Мбайт (6%)
Выравнивание : Соединение по промежуткам
Продолжительность промежутка : 40 мс. (1,00 видеокадр)
Время предзагрузки промежутка : 504 мс.
Библиотека кодирования : LAME3.90.3
- -
Download / Скачать

Хотите скачать бесплатно? Зарегистрируйтесь на сайте (ссылка на регистрацию). Pirat.ca - самый быстрый торрент трекер в рунете!

Как скачивать  ·   Что такое торрент  ·   Рейтинг и ограничения

Пост 08-Апр-2013 10:24 (спустя 3 часа)

Топик был перенесен из форума Наше кино (Трюм) в форум Новинки (HD|DVD|BD|TV|SAT|PDTV| - Rips)

ara1205
 

Саша1959

Флибустьер

Пост 08-Апр-2013 10:32 (спустя 3 часа)

[Q] 

Опять слезы
[Профиль]  [ЛС] 

lis777

Корсар

Пост 18-Апр-2013 23:08 (спустя 10 дней)

[Q] 

[Профиль]  [ЛС] 

vovapowers

Морской Волк

Пост 19-Апр-2013 18:36 (спустя 19 часов)

[Q] 

так одни слезы или как фильм ?
[Профиль]  [ЛС] 

anonymoys

Гроза морей

901

Пост 21-Апр-2013 14:19 (спустя 1 день 19 часов)

[Q] 

[Профиль]  [ЛС] 

Deniska7777

Шкипер

Пост 21-Апр-2013 22:39 (спустя 8 часов)

[Q] 

[Профиль]  [ЛС] 

Alex Yz

Гроза морей

Пост 23-Апр-2013 16:52 (спустя 1 день 18 часов)

[Q] 

Неплохо. Посмотрим. Скачав отправлю отзыв!
[Профиль]  [ЛС] 

DmMur

Шкипер

Пост 23-Апр-2013 18:13 (спустя 1 час 20 минут)

[Q] 

[Профиль]  [ЛС] 
Показать сообщения:    
Ответить на тему

Текущее время: Сегодня 23:48

Часовой пояс: GMT + 4



Вы не можете начинать темы
Вы не можете отвечать на сообщения
Вы не можете редактировать свои сообщения
Вы не можете удалять свои сообщения
Вы не можете голосовать в опросах
Вы не можете прикреплять файлы к сообщениям
Вы не можете скачивать файлы

▼ Вниз