ML
     
  Уважаемый Гость!
Вы можете поддержать проект и зарегистрироваться у наших партнеров - онлайн-стратегия MyLands. При регистрации в игре Вы получите код, который сможете активировать после регистрации на pirat.ca и получить 1000 дублонов.

Ваш код:
156f85568ae63e45e07ac461c96a83ba1a876b0a
 
     

Кочегар (Алексей Балабанов) [2010 г., драма, криминал, DVDRip] «Союз-Видео»

Ответить на тему
 
Автор
Сообщение

Пост 11-Апр-2013 14:39

[Q] 

Resident

-Кочегар--«13-ый фильм Алексея Балабанова» Производство: Россия Фонд кино, Кинокомпания CTB
Режиссер: Алексей Балабанов
Жанр: драма, криминал
Год выпуска: 2010 г.
Продолжительность: 01:24:03
Российская премьера: 13 октября 2010, «Наше Кино»
Дата выхода DVD: 11 ноября 2010, «Союз-Видео»
В ролях: Михаил Скрябин, Юрий Матвеев, Александр Мосин, Аида Тумутова, Анна Коротаева, Вячеслав Павлють, Алина Политова, Варвара Белокурова, Вячеслав Тельнов, Петр Семак...-Описание: Время и место действия: Санкт-Петербург, середина 90-х годов ХХ столетия, главный герой — майор в отставке, работает в кочегарке, и в свободное время на старенькой печатной машинке пишет рассказ. Однако затворника-кочегара часто посещают самые разные гости…-
Качество видео: DVDRip
Контейнер: AVI
Видео кодек: XviD
Аудио кодек: AC3
Видео: 720x384 (1.85:1), 25.000 fps, XviD ~ 2279 kbps avg, 0.330 bit/pixel
Аудио: 48 kHz, AC3 2 ch, 192 kbps
Cубтитры: отсутствуют
General
Complete name : W:\Kochegar.2010.DVDRip.avi
Format : AVI
Format/Info : Audio Video Interleave
File size : 1.46 GiB
Duration : 1h 24mn
Overall bit rate : 2 481 Kbps
Writing application : VirtualDubModRus 1.5.10.2 (build 2542/release)
Writing library : VirtualDubMod build 2542/release
Video
ID : 0
Format : MPEG-4 Visual
Format profile : Advanced [email protected]
Format settings, BVOP : Yes
Format settings, QPel : No
Format settings, GMC : No warppoints
Format settings, Matrix : Custom
Codec ID : XVID
Codec ID/Hint : XviD
Duration : 1h 24mn
Bit rate : 2 279 Kbps
Width : 720 pixels
Height : 384 pixels
Display aspect ratio : 1.875
Frame rate : 25.000 fps
Color space : YUV
Chroma subsampling : 4:2:0
Bit depth : 8 bits
Scan type : Progressive
Bits/(Pixel*Frame) : 0.330
Stream size : 1.34 GiB (92%)
Writing library : XviD 65
Audio
ID : 1
Format : AC-3
Format/Info : Audio Coding 3
Mode extension : CM (complete main)
Codec ID : 2000
Duration : 1h 23mn
Bit rate mode : Constant
Bit rate : 192 Kbps
Channel(s) : 2 channels
Channel positions : Front: L R
Sampling rate : 48.0 KHz
Bit depth : 16 bits
Stream size : 115 MiB (8%)
Alignment : Split accross interleaves
Interleave, duration : 40 ms (1.00 video frame)
Interleave, preload duration : 500 ms
Download / Скачать

Хотите скачать бесплатно? Зарегистрируйтесь на сайте (ссылка на регистрацию). Pirat.ca - самый быстрый торрент трекер в рунете!

Как скачивать  ·   Что такое торрент  ·   Рейтинг и ограничения

Пост 11-Апр-2013 17:49 (спустя 3 часа)

Топик был перенесен из форума Наше кино (Трюм) в форум Российские фильмы

ara1205
 

magafan

Лоцман

Пост 11-Апр-2013 23:38 (спустя 8 часов)

[Q] 

фильмец хорош!!
[Профиль]  [ЛС] 

wolfgeni

Лоцман

Пост 02-Май-2013 21:14 (спустя 20 дней)

[Q] 

фильм супер!!!!!
[Профиль]  [ЛС] 

kronzvk

Шкипер

Пост 19-Май-2013 04:59 (спустя 16 дней)

[Q] 

[Профиль]  [ЛС] 

Pit

Пост 20-Май-2013 22:39 (спустя 1 день 17 часов)

[Q] 

Надо посмотреть...
[Профиль]  [ЛС] 

ivan.tratil 67

Корсар

Пост 11-Июн-2013 09:54 (спустя 21 день)

[Q] 

[Профиль]  [ЛС] 

fhnvfy

Морской Волк

Пост 27-Июл-2013 08:19 (спустя 1 месяц 15 дней)

[Q] 

[Профиль]  [ЛС] 
Показать сообщения:    
Ответить на тему

Текущее время: Сегодня 21:57

Часовой пояс: GMT + 4



Вы не можете начинать темы
Вы не можете отвечать на сообщения
Вы не можете редактировать свои сообщения
Вы не можете удалять свои сообщения
Вы не можете голосовать в опросах
Вы не можете прикреплять файлы к сообщениям
Вы не можете скачивать файлы

▼ Вниз