ML
     
  Уважаемый Гость!
Вы можете поддержать проект и зарегистрироваться у наших партнеров - онлайн-стратегия MyLands. При регистрации в игре Вы получите код, который сможете активировать после регистрации на pirat.ca и получить 1000 дублонов.

Ваш код:
1a5b0a965618b2c406d4279ec9924ee6282c60cf
 
     

Дед Мороз всегда звонит… трижды! (Константин Статский) [2011 г., комедия, DVDRip]

Ответить на тему
 
Автор
Сообщение

Пост 22-Дек-2011 03:57

[Q] 

zyyx

--Дед Мороз всегда звонит… трижды!-- Год выпуска: 2011
Страна: Россия
Жанр: комедия
Продолжительность: 01:39:45
Перевод: Оригинал [Лицензия]
Режиссер: Константин Статский
В ролях: Максим Виторган, Валерий Меладзе, Татьяна Васильева, Максим Матвеев, Михаил Трухин, Андрей Фролов, Камиль Ларин, Юлия Ауг, Ирина Цывина
Описание: Эта история произошла в обычной московской семье, на одной из улиц, в одном из домов… Началась она незадолго до Нового года — а вот закончилась уже по его наступлении. В семье наших героев, как, впрочем, и в любой другой семье перед праздником — новогодний переполох. Теща ссорится с главой семьи, ребенок задергал старших родственников вопросом: «А Дед Мороз придет?» А жена главного героя, между приготовлением салатов, украшением елки и накрыванием стола, пытается всех успокоить и примирить!
Но в самый разгар этой семейно-новогодней войны главный возмутитель спокойствия — хозяин дома — неожиданно… самоустраняется с поля боевых действий! Антикварная дверь в туалет, купленная в канун праздника тещей, захлопывается, оставляя нашего героя без праздника, а гостей — без хозяина! Что делать? Ломать дверь и окончательно разругаться с тещей? Подождать слесаря и пропустить праздник? А может, это вынужденное заточение — отличный повод разобраться в себе и, наконец, восстановить мир в доме?
Источник/Качество: DVDRip | Сэмпл
Формат: AVI
Видео кодек: XviD
Аудио кодек: AC3
Видео: 720x400 (1.80:1), 25 fps, XviD build 50 ~1567 kbps avg, 0.22 bit/pixel
Аудио: 48 kHz, AC3 Dolby Digital, 2/0 (L,R) ch, ~384 kbps
General
Complete name : D:\pirat.ca\Дед Мороз всегда звонит… трижды! (2011) DVDRip.avi
Format : AVI
Format/Info : Audio Video Interleave
File size : 1.37 GiB
Duration : 1h 39mn
Overall bit rate : 1 962 Kbps
Movie name : Ded.Moroz.vsegda.zvonit.trizhdy.2011.O.DVDRip
Writing application : VirtualDubMod 1.5.10.2 (build 2540/release)
Video
ID : 0
Format : MPEG-4 Visual
Format profile : Advanced [email protected]
Format settings, BVOP : 2
Format settings, QPel : No
Format settings, GMC : No warppoints
Format settings, Matrix : Custom
Codec ID : XVID
Codec ID/Hint : XviD
Duration : 1h 39mn
Bit rate : 1 568 Kbps
Width : 720 pixels
Height : 400 pixels
Display aspect ratio : 16:9
Frame rate : 25.000 fps
Color space : YUV
Chroma subsampling : 4:2:0
Bit depth : 8 bits
Scan type : Progressive
Compression mode : Lossy
Bits/(Pixel*Frame) : 0.218
Stream size : 1.09 GiB (80%)
Writing library : XviD 1.2.1 (UTC 2008-12-04)
Audio
ID : 1
Format : AC-3
Format/Info : Audio Coding 3
Mode extension : CM (complete main)
Codec ID : 2000
Duration : 1h 39mn
Bit rate mode : Constant
Bit rate : 384 Kbps
Channel(s) : 2 channels
Channel positions : Front: L R
Sampling rate : 48.0 KHz
Bit depth : 16 bits
Compression mode : Lossy
Stream size : 274 MiB (20%)
Alignment : Aligned on interleaves
Interleave, duration : 40 ms (1.00 video frame)
Interleave, preload duration : 512 ms



Download / Скачать

Хотите скачать бесплатно? Зарегистрируйтесь на сайте (ссылка на регистрацию). Pirat.ca - самый быстрый торрент трекер в рунете!

Как скачивать  ·   Что такое торрент  ·   Рейтинг и ограничения

Пост 22-Дек-2011 07:04 (спустя 3 часа)

Топик был перенесен из форума Наше Кино в форум Новинки (HD|DVD|BD|TV|SAT|PDTV| - Rips)

Skinwalker
 

ksg111ban

Гроза морей

Пост 22-Дек-2011 18:26 (спустя 14 часов)

[Q] 

После нескончаемой череды с избитыми криминальными сюжетами,фильм порадовал. Светлый и добрый фильм,после просмотра,несмотря на тяжелый день поднялось настроение.Спасибо сиду за труды.

_________________
[Профиль]  [ЛС] 

bruder

Флибустьер

Пост 22-Дек-2011 19:40 (спустя 1 час 13 минут)

[Q] 

Спасибо, братуха!

_________________
[Профиль]  [ЛС] 

Серегазмей

Корсар

186

Пост 14-Янв-2012 01:23 (спустя 22 дня)

[Q] 

Добрый фильм, как раз для НГ.

_________________
[Профиль]  [ЛС] 

Pesok

Гроза морей

Пост 15-Янв-2012 11:52 (спустя 1 день 10 часов)

[Q] 

спасибо!

_________________
[Профиль]  [ЛС] 

MakAVP

Морской Волк

18

Пост 16-Янв-2012 17:09 (спустя 1 день 5 часов)

[Q] 

Прикольный фильм "на раз" :)

_________________

[Профиль]  [ЛС] 

C0y0te

1421

Пост 16-Янв-2012 21:55 (спустя 4 часа)

[Q] 

хороший фильм, раздающему респект
[Профиль]  [ЛС] 

dadec39

Корсар

Пост 20-Янв-2012 15:52 (спустя 3 дня)

[Q] 

Хороший фильм, получше всяких ёлок.
[Профиль]  [ЛС] 

Pesok

Гроза морей

Пост 21-Янв-2012 08:58 (спустя 17 часов)

[Q] 

посмотрел- ничего так фильмец, спасибо!

_________________
[Профиль]  [ЛС] 

V.Spectre

Морской Волк

Пост 29-Янв-2012 07:40 (спустя 7 дней)

[Q] 

Хороший фильм.
[Профиль]  [ЛС] 

lis777

Корсар

Пост 05-Фев-2012 00:22 (спустя 6 дней)

[Q] 

[Профиль]  [ЛС] 

anonymoys

Гроза морей

901

Пост 05-Фев-2012 12:10 (спустя 11 часов)

[Q] 

[Профиль]  [ЛС] 

UA4HQW

Флибустьер

2528

Пост 19-Дек-2013 10:16 (спустя 1 год 10 месяцев)

[Q] 

Мне понравилось Раздающему респект!
[Профиль]  [ЛС] 

Mistar

Морской Волк

1

Пост 21-Дек-2013 22:39 (спустя 2 дня 12 часов)

[Q] 

Пиратка рулит!
[Профиль]  [ЛС] 

Dysy

Морской Волк

Пост 26-Дек-2013 16:16 (спустя 4 дня)

[Q] 

качаю тем более скоро новый год Всем качать!!! Спасибо!!!
[Профиль]  [ЛС] 

СерКат

Корсар

Пост 30-Дек-2013 09:41 (спустя 3 дня)

[Q] 

вижу все довольны,надо тоже посмотреть
[Профиль]  [ЛС] 

Scorpion7474

Флибустьер

Пост 19-Май-2014 14:13 (спустя 4 месяца 20 дней)

[Q] 

Лови бочку
[Профиль]  [ЛС] 
Показать сообщения:    
Ответить на тему

Текущее время: Сегодня 23:50

Часовой пояс: GMT + 4



Вы не можете начинать темы
Вы не можете отвечать на сообщения
Вы не можете редактировать свои сообщения
Вы не можете удалять свои сообщения
Вы не можете голосовать в опросах
Вы не можете прикреплять файлы к сообщениям
Вы не можете скачивать файлы

▼ Вниз