ML
     
  Уважаемый Гость!
Вы можете поддержать проект и зарегистрироваться у наших партнеров - онлайн-стратегия MyLands. При регистрации в игре Вы получите код, который сможете активировать после регистрации на pirat.ca и получить 1000 дублонов.

Ваш код:
156f85568ae63e45e07ac461c96a83ba1a876b0a
 
     

Фортнайт (Руслан Гаврилов) [2013 г., драма, мелодрама, HDRip]

Ответить на тему
 
Автор
Сообщение

Пост 14-Апр-2013 18:03

[Q] 

Resident

-Фортнайт--«Две стороны монеты - две стороны любви» Производство: Россия Arnando Studio
Режиссер: Руслан Гаврилов
Жанр: драма, мелодрама
Год выпуска: 2013 г.
Продолжительность: 01:30:39
Российская премьера: 20 января 2013
В ролях: Александр Звонарёв, Алексей Гамора, Артур Ханмурзин, Алеся Чернышева, Мария Тверитнева, Инна Терёхина, Алёна Зновина, Юлия Корнеева, Карина Седых, Алек Яковлев, Дарья Русакова, Алёна Соловей, Геннадий Колин, Андрей Улько-Описание: В основе сюжета лежит три истории, объединённых одной темой — любовь, как монета, имеющая две стороны. Ревность, недоверие, мучение и корысть наперевес светлым чувствам, жертвенности и доброте.-
Качество видео: HDRip
Контейнер: AVI
Видео кодек: XviD
Аудио кодек: AC3
Видео: 720x304 (2.37:1), 23.976 fps, XviD build 50 ~1897 kbps avg, 0.36 bit/pixel
Аудио: 48 kHz, AC3 Dolby Digital, 2/0 (L,R) ch, ~384 kbps
Cубтитры: отсутствуют
General
Complete name : W:\Fortnight.2013.HDRip.avi
Format : AVI
Format/Info : Audio Video Interleave
File size : 1.45 GiB
Duration : 1h 30mn
Overall bit rate : 2 291 Kbps
Writing application : VirtualDubMod 1.5.10.3 |(build 2550/release)
Writing library : VirtualDubMod build 2550/release
Video
ID : 0
Format : MPEG-4 Visual
Format profile : Advanced [email protected]
Format settings, BVOP : Yes
Format settings, QPel : No
Format settings, GMC : No warppoints
Format settings, Matrix : Default (MPEG)
Codec ID : XVID
Codec ID/Hint : XviD
Duration : 1h 30mn
Bit rate : 1 898 Kbps
Width : 720 pixels
Height : 304 pixels
Display aspect ratio : 2.35:1
Frame rate : 23.976 fps
Color space : YUV
Chroma subsampling : 4:2:0
Bit depth : 8 bits
Scan type : Progressive
Bits/(Pixel*Frame) : 0.362
Stream size : 1.20 GiB (83%)
Writing library : XviD 1.2.1 (UTC 2008-12-04)
Audio
ID : 1
Format : AC-3
Format/Info : Audio Coding 3
Mode extension : CM (complete main)
Codec ID : 2000
Duration : 1h 30mn
Bit rate mode : Constant
Bit rate : 384 Kbps
Channel(s) : 2 channels
Channel positions : Front: L R
Sampling rate : 48.0 KHz
Bit depth : 16 bits
Stream size : 249 MiB (17%)
Alignment : Split accross interleaves
Interleave, duration : 42 ms (1.00 video frame)
Interleave, preload duration : 500 ms
Download / Скачать

Хотите скачать бесплатно? Зарегистрируйтесь на сайте (ссылка на регистрацию). Pirat.ca - самый быстрый торрент трекер в рунете!

Как скачивать  ·   Что такое торрент  ·   Рейтинг и ограничения

Саша1959

Флибустьер

Пост 14-Апр-2013 18:12 (спустя 9 минут)

[Q] 

Спасибо
[Профиль]  [ЛС] 

Пост 14-Апр-2013 18:27 (спустя 14 минут)

Топик был перенесен из форума Наше кино (Трюм) в форум Новинки (HD|DVD|BD| TV|SAT|PDTV| - Rips)

ara1205
 

vovapowers

Морской Волк

Пост 14-Апр-2013 20:13 (спустя 2 часа)

[Q] 

рейтинг на кинопоиске не впечатляет
[Профиль]  [ЛС] 

KOnovalenko

Штурман

Пост 15-Апр-2013 20:14 (спустя 1 день)

[Q] 

как фильм?
[Профиль]  [ЛС] 

Nech

Шкипер

Пост 15-Апр-2013 22:38 (спустя 2 часа 24 минуты)

[Q] 

там сиськи показывают- качайте)))
[Профиль]  [ЛС] 

vvkkos

Шкипер

Пост 25-Апр-2013 23:23 (спустя 10 дней)

[Q] 

на скринах сисек нет - и качать не буду
[Профиль]  [ЛС] 

Пост 20-Май-2013 08:42 (спустя 24 дня)

Топик был перенесен из форума Новинки (HD|DVD|BD| TV|SAT|PDTV| - Rips) в форум Российские фильмы

ara1205
 

deliriy777

Штурман

Пост 27-Июн-2013 23:30 (спустя 2 месяца 2 дня)

[Q] 

раздражали эти снусмумрики
[Профиль]  [ЛС] 

anton78

Морской Волк

Пост 28-Июн-2013 22:49 (спустя 23 часа)

[Q] 

Не то что сисек,на скринах даже бабёнок симпотных не вижу((((
[Профиль]  [ЛС] 

гришасемечкин

Корсар

1160

Пост 09-Июл-2013 12:58 (спустя 10 дней)

[Q] 

СИСЬКИ!? Это хорошо, сиськи делают людей счастливыми!!!
[Профиль]  [ЛС] 
Показать сообщения:    
Ответить на тему

Текущее время: Сегодня 22:00

Часовой пояс: GMT + 4



Вы не можете начинать темы
Вы не можете отвечать на сообщения
Вы не можете редактировать свои сообщения
Вы не можете удалять свои сообщения
Вы не можете голосовать в опросах
Вы не можете прикреплять файлы к сообщениям
Вы не можете скачивать файлы

▼ Вниз