ML
     
  Уважаемый Гость!
Вы можете поддержать проект и зарегистрироваться у наших партнеров - онлайн-стратегия MyLands. При регистрации в игре Вы получите код, который сможете активировать после регистрации на pirat.ca и получить 1000 дублонов.

Ваш код:
dbd0d701284cde74a1f34d06ce20b7bc75a73e75
 
     

Флэш.ка, Flash Entertainment Kinokompaniya (Георгий Шенгелия) [2006 г., триллер, драма, криминал, DVDRip]

Ответить на тему
 
Автор
Сообщение

Пост 14-Апр-2013 23:12

[Q] 

aleksejj

Корсар

-Флэш.ка«В игре должны быть правила...»-- Производство: Россия
Режиссер: Георгий Шенгелия
Жанр: триллер, драма, криминал
Год выпуска: 2006 г.
Продолжительность: 01:45:09
Российская премьера: 23 ноября 2006, «Каропрокат»
Дата выхода DVD: 4 июня 2009, «Флагман-Трейд»
В ролях: Евгений Стычкин, Илья Шакунов, Андрей Ташков, Владимир Нисков, Георгий Клюев, Ростислав Бершауэр, Александр Василевский, Валентина Ананьина, Владислав Абашин-Описание: Он живет в огромном мегаполисе и работает в солидной финансовой кампании. У него красавица жена, престижная машина, шикарный пентхаус. И не важно, что жена — начальник, да и работа давно не приносит удовольствия. Он просто привык. Он тайно строит дом у реки в далекой деревне, чтобы когда-нибудь отвезти туда жену и вместе вспомнить то время, когда в их жизни было то, что важнее денег: рассветы, друзья, байдарки, парное молоко…
Он еще не знает, что правила установлены, роли расписаны, ошибки — исключены… Однажды он приходит домой слишком рано. Мгновение — и жизнь круто меняется. Предательство жены — и уже нечего терять. Он кладет в карман флэшку с информацией стоимостью 320 миллионов долларов, от которой зависит спокойствие и жизнь Больших Людей. Он едет в дом над рекой. Там будут байдарки, задушевный разговор и лучший друг. Но все это продлится недолго…
-КиноПоиск
Качество видео: DVDRip
Контейнер: AVI
Видео кодек: XviD
Аудио кодек: MP3
Видео: 640x352 (1.82:1), 25 fps, XviD Final 1.0.3 (build 37) ~1718 kbps avg, 0.30 bit/pixel
Аудио: 48 kHz, MPEG Layer 3, 2 ch, ~128.00 kbps avg
Cубтитры: отсутствуют
Код:
Общее
Полное имя                               : D:\fleshka.avi
Формат                                   : AVI
Формат/Информация                        : Audio Video Interleave
Размер файла                             : 1,46 Гбайт
Продолжительность                        : 1 ч. 45 м.
Общий поток                              : 1990 Кбит/сек
Программа кодирования                    : VirtualDubMod 1.5.10.2 (build 2540/release)
Библиотека кодирования                   : VirtualDubMod build 2540/release
Видео
Идентификатор                            : 0
Формат                                   : MPEG-4 Visual
Профиль формата                          : Advanced [email protected]
Параметр BVOP формата                    : 2
Параметр QPel формата                    : Нет
Параметр GMC формата                     : Без точки перехода
Параметр матрицы формата                 : Default (MPEG)
Режим смешивания                         : Сжатый битовый поток
Идентификатор кодека                     : XVID
Идентификатор кодека/Подсказка           : XviD
Продолжительность                        : 1 ч. 45 м.
Битрейт                                  : 1719 Кбит/сек
Ширина                                   : 640 пикселей
Высота                                   : 352 пикселя
Соотношение сторон                       : 16:9
Частота кадров                           : 25,000 кадров/сек
Цветовое пространство                    : YUV
Субдискретизация насыщенности            : 4:2:0
Битовая глубина                          : 8 бит
Тип развёртки                            : Прогрессивная
Метод сжатия                             : С потерями
Бит/(Пиксели*Кадры)                      : 0.305
Размер потока                            : 1,26 Гбайт (86%)
Библиотека кодирования                   : XviD 1.0.3 (UTC 2004-12-20)
Аудио #1
Идентификатор                            : 1
Формат                                   : MPEG Audio
Версия формата                           : Version 1
Профиль формата                          : Layer 3
Режим                                    : Joint stereo
Расширение режима                        : MS Stereo
Идентификатор кодека                     : 55
Идентификатор кодека/Подсказка           : MP3
Продолжительность                        : 1 ч. 45 м.
Вид битрейта                             : Постоянный
Битрейт                                  : 128 Кбит/сек
Каналы                                   : 2 канала
Частота                                  : 48,0 КГц
Метод сжатия                             : С потерями
Задержка видео                           : 216 мс.
Размер потока                            : 96,3 Мбайт (6%)
Выравнивание                             : Соединение по промежуткам
Продолжительность промежутка             : 40  мс. (1,00 видеокадр)
Время предзагрузки промежутка            : 504  мс.
Download / Скачать

Хотите скачать бесплатно? Зарегистрируйтесь на сайте (ссылка на регистрацию). Pirat.ca - самый быстрый торрент трекер в рунете!

Как скачивать  ·   Что такое торрент  ·   Рейтинг и ограничения

Пост 14-Апр-2013 23:28 (спустя 16 минут)

Топик был перенесен из форума Наше кино (Трюм) в форум Российские фильмы

ara1205
 

cergo

Гроза морей

20034

Пост 14-Апр-2013 23:31 (спустя 18 минут)

[Q] 

[Профиль]  [ЛС] 

Alingva

Гроза морей

18

Пост 15-Апр-2013 09:31 (спустя 10 часов)

[Q] 


_________________
Если Вам кажется что у Вас нимб над головой, то не обращайте на него внимание - это просто мания величия!
[Профиль]  [ЛС] 
Показать сообщения:    
Ответить на тему

Текущее время: Сегодня 18:32

Часовой пояс: GMT + 4



Вы не можете начинать темы
Вы не можете отвечать на сообщения
Вы не можете редактировать свои сообщения
Вы не можете удалять свои сообщения
Вы не можете голосовать в опросах
Вы не можете прикреплять файлы к сообщениям
Вы не можете скачивать файлы

▼ Вниз