ML
     
  Уважаемый Гость!
Вы можете поддержать проект и зарегистрироваться у наших партнеров - онлайн-стратегия MyLands. При регистрации в игре Вы получите код, который сможете активировать после регистрации на pirat.ca и получить 1000 дублонов.

Ваш код:
ec3b26eefbcdc72e08e9fd33c6846bb2ca10f8b1
 
     

Родной человек (Игорь Штернберг) [2013 г., Мелодрама, HDTVRip] «Студия ПАЛАМЕДА», «ФАБУЛА»

Ответить на тему
 
Автор
Сообщение

Пост 15-Апр-2013 15:10

[Q] 

Resident

-Родной человек-- Производство: Россия «Студия ПАЛАМЕДА», «ФАБУЛА»
Режиссер: Игорь Штернберг
Жанр: Мелодрама
Год выпуска: 2013 г.
Продолжительность: 01:30:04
Российская премьера: 14 апреля 2013
В ролях: Александра Афанасьева-Шевчук, Дмитрий Ратомский, Елена Дубровская, Максим Кречетов, Анатолий Котенёв, Елена Ручкина, Игорь Штернберг-Описание: Алла и Коля были влюблены друг в друга с босоного деревенского детства. В знак своей любви они даже, как взрослые, "обручились" колечками. Шло время. Их любовь только крепла, несмотря на недоброжелательность Колиной родни. Казалось, их счастью уже ничто не может помешать… Но однажды Алла познакомилась с Игорем. Безобидный выезд за город резко изменил всю дальнейшую жизнь Аллы, Коли и Игоря. Героиня оказалась перед мучительным выбором, от которого зависит уже не только ее счастье.-
Качество видео: HDTVRip
Контейнер: AVI
Видео кодек: XviD
Аудио кодек: AC3
Видео: XviD, ~ 1962 Кбит/с, 720x400, 25 fps, 0.272 bit / pix
Аудио: 48kHz, АС3, 2 ch, ~ 192 kbps avg
Cубтитры: отсутствуют
General
Complete name : W:\Rodnoy.chelovek.2013.XviD.HDTVRip.avi
Format : AVI
Format/Info : Audio Video Interleave
File size : 1.37 GiB
Duration : 1h 30mn
Overall bit rate : 2 164 Kbps
Writing application : VirtualDubMod 1.5.10.3| (build 2550/release)
Writing library : VirtualDubMod build 2550/release
Video
ID : 0
Format : MPEG-4 Visual
Format profile : Advanced [email protected]
Format settings, BVOP : Yes
Format settings, QPel : No
Format settings, GMC : No warppoints
Format settings, Matrix : Default (H.263)
Codec ID : XVID
Codec ID/Hint : XviD
Duration : 1h 30mn
Bit rate : 1 962 Kbps
Width : 720 pixels
Height : 400 pixels
Display aspect ratio : 16:9
Frame rate : 25.000 fps
Color space : YUV
Chroma subsampling : 4:2:0
Bit depth : 8 bits
Scan type : Progressive
Bits/(Pixel*Frame) : 0.272
Stream size : 1.24 GiB (91%)
Writing library : XviD 1.2.1 (UTC 2008-12-04)
Audio
ID : 1
Format : AC-3
Format/Info : Audio Coding 3
Mode extension : CM (complete main)
Codec ID : 2000
Duration : 1h 30mn
Bit rate mode : Constant
Bit rate : 192 Kbps
Channel(s) : 2 channels
Channel positions : Front: L R
Sampling rate : 48.0 KHz
Bit depth : 16 bits
Stream size : 124 MiB (9%)
Alignment : Split accross interleaves
Interleave, duration : 40 ms (1.00 video frame)
Interleave, preload duration : 500 ms
Download / Скачать

Хотите скачать бесплатно? Зарегистрируйтесь на сайте (ссылка на регистрацию). Pirat.ca - самый быстрый торрент трекер в рунете!

Как скачивать  ·   Что такое торрент  ·   Рейтинг и ограничения

Саша1959

Флибустьер

Пост 15-Апр-2013 18:37 (спустя 3 часа)

[Q] 

Спасибо
[Профиль]  [ЛС] 

Пост 15-Апр-2013 20:49 (спустя 2 часа 11 минут)

Топик был перенесен из форума Наше кино (Трюм) в форум Новинки (HD|DVD|BD| TV|SAT|PDTV| - Rips)

ara1205
 

Zorky

Морской Волк

Пост 15-Апр-2013 20:51 (спустя 2 часа 13 минут)

[Q] 

[Профиль]  [ЛС] 

DHARMEEDONT

Флибустьер

Пост 16-Апр-2013 23:32 (спустя 1 день 2 часа)

[Q] 

[Профиль]  [ЛС] 

vovapowers

Морской Волк

Пост 19-Апр-2013 20:01 (спустя 2 дня 20 часов)

[Q] 

подозрительный рейтинг-заценим
[Профиль]  [ЛС] 

QvilS

Штурман

Пост 19-Май-2013 10:22 (спустя 29 дней)

[Q] 

[Профиль]  [ЛС] 

Пост 20-Май-2013 08:33 (спустя 22 часа)

Топик был перенесен из форума Новинки (HD|DVD|BD| TV|SAT|PDTV| - Rips) в форум Российские фильмы

ara1205
 
Показать сообщения:    
Ответить на тему

Текущее время: Сегодня 03:49

Часовой пояс: GMT + 4



Вы не можете начинать темы
Вы не можете отвечать на сообщения
Вы не можете редактировать свои сообщения
Вы не можете удалять свои сообщения
Вы не можете голосовать в опросах
Вы не можете прикреплять файлы к сообщениям
Вы не можете скачивать файлы

▼ Вниз