ML
     
  Уважаемый Гость!
Вы можете поддержать проект и зарегистрироваться у наших партнеров - онлайн-стратегия MyLands. При регистрации в игре Вы получите код, который сможете активировать после регистрации на pirat.ca и получить 1000 дублонов.

Ваш код:
062e2babcc491faeb40d496cf9a498ac3df6cdd0
 
     

О чём молчат девушки (Карен Оганесян) [2013 г., комедия, DVDRip] (Лицензия)

Ответить на тему
 
Автор
Сообщение

Пост 17-Апр-2013 13:20

[Q] 

ara1205

-О чём молчат девушки-- Производство: Россия
Год выпуска: 2013 г.
Жанр: комедия
Продолжительность: 01:21:57
Дата выхода DVD: 18 апреля 2013-Режиссер: Карен Оганесян-В ролях: Юлия Пересильд, Олеся Судзиловская, Ольга Смирнова, Таисия Вилкова, Михаил Пореченков, Ольга Тумайкина, Виталий Хаев-Описание: Четыре подруги сбегают из Москвы на уикенд в солнечную Испанию, чтобы на пляже, в SPA и за коктейлями на террасе расслабиться и поболтать обо всем. Но бывают обстоятельства, в которых девушки начинают говорить о том, о чем они обычно молчат…- -Качество видео: DVDRip
Контейнер: AVI
Видео кодек: XviD
Аудио кодек: MP3
Видео: 688x352, 25 fps, 1132 kbps avg, 0.187 bit/pixel
Аудио: 48 kHz, 2 ch, 128 kbps
Cубтитры: отсутствуют-
Общее
Полное имя : C:\Users\Ромик\Pictures\Посмотреть\О чём молчат девушки\O.chem.molchat.devushki.2013.DVDRip.745Mb.avi
Формат : AVI
Формат/Информация : Audio Video Interleave
Размер файла : 744 Мбайт
Продолжительность : 1 ч. 21 м.
Общий поток : 1269 Кбит/сек
Название фильма : O.chem.molchat.devushki.2013.DVDRip.745Mb.[pirat.ca]
Режиссёр : ara1205
Программа кодирования : VirtualDubMod 1.5.10.2 (build 2540/release)
Видео
Идентификатор : 0
Формат : MPEG-4 Visual
Профиль формата : Advanced [email protected]
Параметр BVOP формата : 2
Параметр QPel формата : Нет
Параметр GMC формата : Без точки перехода
Параметр матрицы формата : Default (MPEG)
Идентификатор кодека : XVID
Идентификатор кодека/Подсказка : XviD
Продолжительность : 1 ч. 21 м.
Битрейт : 1132 Кбит/сек
Ширина : 688 пикселей
Высота : 352 пикселя
Соотношение сторон : 1,955
Частота кадров : 25,000 кадров/сек
Цветовое пространство : YUV
Субдискретизация насыщенности : 4:2:0
Битовая глубина : 8 бит
Тип развёртки : Прогрессивная
Метод сжатия : С потерями
Бит/(Пиксели*Кадры) : 0.187
Размер потока : 663 Мбайт (89%)
Библиотека кодирования : XviD 1.2.0.dev47 (UTC 2006-11-01)
Аудио
Идентификатор : 1
Формат : MPEG Audio
Версия формата : Version 1
Профиль формата : Layer 3
Идентификатор кодека : 55
Идентификатор кодека/Подсказка : MP3
Продолжительность : 1 ч. 21 м.
Вид битрейта : Постоянный
Битрейт : 128 Кбит/сек
Каналы : 2 канала
Частота : 48,0 КГц
Метод сжатия : С потерями
Размер потока : 75,0 Мбайт (10%)
Выравнивание : Соединение по промежуткам
Продолжительность промежутка : 40 мс. (1,00 видеокадр)
Время предзагрузки промежутка : 504 мс.
Библиотека кодирования : LAMELAME_MAJOR_VERSI
-
-
-
Download / Скачать

Хотите скачать бесплатно? Зарегистрируйтесь на сайте (ссылка на регистрацию). Pirat.ca - самый быстрый торрент трекер в рунете!

Как скачивать  ·   Что такое торрент  ·   Рейтинг и ограничения



Последний раз редактировалось: ara1205 (2013-04-18 07:59), всего редактировалось 1 раз

Mysurname1

Юнга

36

Пост 17-Апр-2013 17:23 (спустя 4 часа)

[Q] 

Фильм на любителя...Моя оценка 2 из 10 (и то за красивые пейзажи Испании). Да и рейтинг на IMDb говорит сам за себя...
В любом случае лови бочонок, за старания. Спасибо.

_________________
Распространите среди жильцов нашего ЖЭКа. А если не будут брать - отключим газ!
[Профиль]  [ЛС] 

olipov

Легенда

Пост 18-Апр-2013 13:23 (спустя 19 часов)

[Q] 

[Профиль]  [ЛС] 

ubadm

Морской Волк

Пост 18-Апр-2013 17:42 (спустя 4 часа)

[Q] 

Надо будет глянуть
[Профиль]  [ЛС] 

bolikgeko

Гроза морей

209

Пост 18-Апр-2013 17:50 (спустя 7 минут)

[Q] 

[Профиль]  [ЛС] 

vovapowers

Морской Волк

Пост 18-Апр-2013 20:09 (спустя 2 часа 18 минут)

[Q] 

н-да, отзывы на кинопоиске впечатляют
[Профиль]  [ЛС] 

Фанис

Шкипер

Пост 24-Апр-2013 18:12 (спустя 5 дней)

[Q] 

мдээээ кинцо конечно полная фигня
[Профиль]  [ЛС] 

woisel

Лоцман

Пост 24-Апр-2013 21:19 (спустя 3 часа)

[Q] 

фильм 1 из 10. НО..... спасибо за старание))))
[Профиль]  [ЛС] 

citrus

Морской Волк

Пост 27-Апр-2013 13:16 (спустя 2 дня 15 часов)

[Q] 

[Профиль]  [ЛС] 

igo-go

Корсар

Пост 27-Апр-2013 18:24 (спустя 5 часов)

[Q] 

ни о чем
[Профиль]  [ЛС] 

denaranov

Корсар

Пост 30-Апр-2013 14:52 (спустя 2 дня 20 часов)

[Q] 

[Профиль]  [ЛС] 

ara1205 ®

69729

Пост 30-Апр-2013 15:35 (спустя 42 минуты)

[Q] 

Смотрю совсем фильм обосрали. А так ли он плох как вы пишите? Моя мать в отличных впечатлениях о фильме, жене тоже понравилось. Сам посмотрел, не чего ужасного не увидел. Фильм не имеет пошлого или чёрного юмора, чем-то даже напоминает фильмы Рязанова, фильм с розовым пушистым и мягким юмором для семейного просмотра с небольшим фарсом.
[Профиль]  [ЛС] 

youfate

Корсар

Пост 01-Май-2013 16:25 (спустя 1 день)

[Q] 

Заценим, спасибо...
[Профиль]  [ЛС] 

Bassmuch

Шкипер

Пост 02-Май-2013 23:38 (спустя 1 день 7 часов)

[Q] 

Да, надо заценить.
[Профиль]  [ЛС] 

Deniska7777

Шкипер

Пост 06-Май-2013 18:27 (спустя 3 дня)

[Q] 

[Профиль]  [ЛС] 

ka1iostro

Корсар

Пост 08-Май-2013 17:31 (спустя 1 день 23 часа)

[Q] 

[Профиль]  [ЛС] 

Пост 20-Май-2013 08:39 (спустя 11 дней)

Топик был перенесен из форума Новинки (HD|DVD|BD| TV|SAT|PDTV| - Rips) в форум Российские фильмы

ara1205
 
Показать сообщения:    
Ответить на тему

Текущее время: Сегодня 17:41

Часовой пояс: GMT + 4



Вы не можете начинать темы
Вы не можете отвечать на сообщения
Вы не можете редактировать свои сообщения
Вы не можете удалять свои сообщения
Вы не можете голосовать в опросах
Вы не можете прикреплять файлы к сообщениям
Вы не можете скачивать файлы

▼ Вниз