ML
     
  Уважаемый Гость!
Вы можете поддержать проект и зарегистрироваться у наших партнеров - онлайн-стратегия MyLands. При регистрации в игре Вы получите код, который сможете активировать после регистрации на pirat.ca и получить 1000 дублонов.

Ваш код:
2fd4e750dd89cae3a36ea360f2b345ccfeb562d3
 
     

Солдатский декамерон (Андрей Прошкин) [2005 г., Комедийная драма, DVDRip]

Ответить на тему
 
Автор
Сообщение

Пост 20-Апр-2013 23:16

[Q] 

cergo

Гроза морей

-Солдатский декамерон-- Производство: Россия, ООО Протел, STS
Режиссер: Андрей Прошкин
Жанр: Комедийная драма
Год выпуска: 2005 г.
Продолжительность: 01:34:17
Российская премьера: 30 ноября 2005, «Парадиз»
В ролях: Александр Агафонов, Андрей Гуркин, Клавдия Коршунова, Елена Лядова, Михаил Пореченков, Алексей Шевченков, Виктор Соловьев, Камиль Тукаев, Юлия Высоцкая, Александр Яценко, Дарья Екамасова, Алексей Ванифатьев, Дмитрий Павленко, Григорий Багров, Борис Егоров, Оксана Сапрыкина, Константин Карпов
-Описание: До поры до времени жизнь в небольшой провинциальной воинской части, полной мечтателей и романтиков, технарей и садовников, шла своим чередом. Бывший курсант Боря Кульшан крутит романы сразу с двумя дочерьми не подозревающего об этом подполковника, дембель Гена Савицкий, влюбленный в жену лейтенанта Пантелеева, тайно носит ей цветы по ночам. А «дух» Оськин видит фантасмагорические сны. Но вскоре жизнь этих необыкновенных людей идет кувырком: из-за телефонистки Раи повесился рядовой Хаитов, а в части появилось… привидение. Уверенные, что это бродит дух самоубийцы, все ударяются в панику…
-КиноПоиск
Качество видео: DVDRip
Контейнер: AVI
Видео кодек: XviD
Аудио кодек: AC3
Видео: 720x384 (1.88:1), 25 fps, XviD MPEG-4 ~2007 kbps avg, 0.29 bit/pixel
Аудио: Audio: 48 kHz, AC3 Dolby Digital, 2/0 (L,R) ch, ~192 kbps
Cубтитры: отсутствуют
Общее
Полное имя : D:\Архив\ФИЛЬМЫ\Soldatsiy.dekameron.2005.avi
Формат : AVI
Формат/Информация : Audio Video Interleave
Размер файла : 1,46 Гбайт
Продолжительность : 1 ч. 34 м.
Общий поток : 2210 Кбит/сек
Название фильма : Солдатский декамерон
Режиссёр : zim2001
Программа кодирования : VirtualDubMod 1.5.10.2 (build 2540/release)
Видео
Идентификатор : 0
Формат : MPEG-4 Visual
Профиль формата : Advanced [email protected]
Параметр BVOP формата : 1
Параметр QPel формата : Нет
Параметр GMC формата : Без точки перехода
Параметр матрицы формата : Выборочная
Идентификатор кодека : XVID
Идентификатор кодека/Подсказка : XviD
Продолжительность : 1 ч. 34 м.
Битрейт : 2008 Кбит/сек
Ширина : 720 пикселей
Высота : 384 пикселя
Соотношение сторон : 1,85:1
Частота кадров : 25,000 кадров/сек
Цветовое пространство : YUV
Субдискретизация насыщенности : 4:2:0
Битовая глубина : 8 бит
Тип развёртки : Прогрессивная
Метод сжатия : С потерями
Бит/(Пиксели*Кадры) : 0.291
Размер потока : 1,32 Гбайт (91%)
Библиотека кодирования : XviD 1.2.1 (UTC 2008-12-04)
Аудио
Идентификатор : 1
Формат : AC-3
Формат/Информация : Audio Coding 3
Расширение режима : CM (complete main)
Параметр Endianness формата : Big
Идентификатор кодека : 2000
Продолжительность : 1 ч. 34 м.
Вид битрейта : Постоянный
Битрейт : 192 Кбит/сек
Каналы : 2 канала
Расположение каналов : Front: L R
Частота : 48,0 КГц
Битовая глубина : 16 бит
Метод сжатия : С потерями
Размер потока : 129 Мбайт (9%)
Выравнивание : Разделение по промежуткам
Продолжительность промежутка : 40 мс. (1,00 видеокадр)
Время предзагрузки промежутка : 500 мс.
Download / Скачать

Хотите скачать бесплатно? Зарегистрируйтесь на сайте (ссылка на регистрацию). Pirat.ca - самый быстрый торрент трекер в рунете!

Как скачивать  ·   Что такое торрент  ·   Рейтинг и ограничения

Пост 21-Апр-2013 00:12 (спустя 55 минут)

Топик был перенесен из форума Наше кино (Трюм) в форум Российские фильмы

ara1205
 

Саша1959

Флибустьер

Пост 21-Апр-2013 01:27 (спустя 2 часа 11 минут)

[Q] 

Глупо,но смешно
[Профиль]  [ЛС] 
Показать сообщения:    
Ответить на тему

Текущее время: Сегодня 14:13

Часовой пояс: GMT + 4



Вы не можете начинать темы
Вы не можете отвечать на сообщения
Вы не можете редактировать свои сообщения
Вы не можете удалять свои сообщения
Вы не можете голосовать в опросах
Вы не можете прикреплять файлы к сообщениям
Вы не можете скачивать файлы

▼ Вниз