ML
     
  Уважаемый Гость!
Вы можете поддержать проект и зарегистрироваться у наших партнеров - онлайн-стратегия MyLands. При регистрации в игре Вы получите код, который сможете активировать после регистрации на pirat.ca и получить 1000 дублонов.

Ваш код:
93dbf9fbdfa06c41d3b5a2c3921149ba36168c41
 
     

Маша и Медведь (Владимир Фатьянов) [2013 г., Мелодрама, SATRip]

Ответить на тему
 
Автор
Сообщение

Пост 22-Апр-2013 08:01

[Q] 

kolobok0

Морской Волк

-Маша и Медведь-- Производство: Россия, "ВайТ Медиа"
Режиссер: Владимир Фатьянов
Жанр: Мелодрама
Год выпуска: 2013 г.
Продолжительность: 01:29:34
В ролях: Ольга Красько, Никита Зверев, Тамара Сёмина, Екатерина Копанова, Николай Ковбас, Алексей Осипов (II), Алексей Ягудин, Галина Бокашевская, Николай Григорьев-Описание: Капризная и вздорная хозяйка строительной фирмы Марианна получает в собственность новый объект - базу отдыха. Марианна планирует все перестроить, уволить практически всех сотрудников и вырубить лес на стройматериалы. Первым под увольнение попадает егерь Егор. Но едва не закончившаяся трагедией прогулка приводит Марианну на таежную заимку Егора. И он решает проучить заносчивую гостью, успевшую перессориться со всем коллективом сотрудников. Укрощая "строптивую", Егор перекладывает на ее плечи все домашние дела, придумывает все новые испытания. Но болезнь Марианны меняет все в их отношениях...-Качество видео: SATRip
Контейнер: AVI
Видео кодек: XviD
Аудио кодек: MP3
Видео: XviD, 1850 Кбит/с, 704х400, 25,000 кадров/сек
Аудио: MP3, 2 ch, 128 Кбит/с, 44,1 КГц
Cубтитры: отсутствуют
kinopoisk.ru
сэмпл
Общее
Полное имя :Masha.i.medved.(2013).SATRip.by.bvsbns.avi
Формат : AVI
Формат/Информация : Audio Video Interleave
Размер файла : 1,24 Гбайт
Продолжительность : 1 ч. 29 м.
Общий поток : 1984 Кбит/сек
Библиотека кодирования : VirtualDub build 18160/release
Видео
Идентификатор : 0
Формат : MPEG-4 Visual
Профиль формата : Advanced [email protected]
Параметр BVOP формата : 2
Параметр QPel формата : Нет
Параметр GMC формата : Без точки перехода
Параметр матрицы формата : Default (MPEG)
Режим смешивания : Сжатый битовый поток
Идентификатор кодека : XVID
Идентификатор кодека/Подсказка : XviD
Продолжительность : 1 ч. 29 м.
Битрейт : 1846 Кбит/сек
Ширина : 704 пикселя
Высота : 400 пикселей
Соотношение сторон : 16:9
Частота кадров : 25,000 кадров/сек
Цветовое пространство : YUV
Субдискретизация насыщенности : 4:2:0
Битовая глубина : 8 бит
Тип развёртки : Прогрессивная
Метод сжатия : С потерями
Бит/(Пиксели*Кадры) : 0.262
Размер потока : 1,16 Гбайт (93%)
Библиотека кодирования : XviD 64
Аудио
Идентификатор : 1
Формат : MPEG Audio
Версия формата : Version 1
Профиль формата : Layer 3
Режим : Joint stereo
Расширение режима : MS Stereo
Идентификатор кодека : 55
Идентификатор кодека/Подсказка : MP3
Продолжительность : 1 ч. 29 м.
Вид битрейта : Постоянный
Битрейт : 128 Кбит/сек
Каналы : 2 канала
Частота : 44,1 КГц
Метод сжатия : С потерями
Размер потока : 82,2 Мбайт (6%)
Выравнивание : Разделение по промежуткам
Продолжительность промежутка : 40 мс. (1,00 видеокадр)
Время предзагрузки промежутка : 500 мс.
Download / Скачать

Хотите скачать бесплатно? Зарегистрируйтесь на сайте (ссылка на регистрацию). Pirat.ca - самый быстрый торрент трекер в рунете!

Как скачивать  ·   Что такое торрент  ·   Рейтинг и ограничения



Последний раз редактировалось: kolobok0 (2013-04-22 20:34), всего редактировалось 1 раз

grey7

Корсар

Пост 22-Апр-2013 08:59 (спустя 58 минут)

[Q] 

Интересное киНО!

_________________
Думаю
[Профиль]  [ЛС] 

Пост 22-Апр-2013 20:41 (спустя 11 часов)

Топик был перенесен из форума Наше кино (Трюм) в форум Новинки (HD|DVD|BD| TV|SAT|PDTV| - Rips)

ara1205
 

vovapowers

Морской Волк

Пост 22-Апр-2013 20:53 (спустя 11 часов)

[Q] 

смотреть можно?
[Профиль]  [ЛС] 

kolobok0 ®

Морской Волк

151

Пост 22-Апр-2013 21:00 (спустя 6 минут)

[Q] 

на нескольких форумах народ говорит, что вполне себе можно гнлянуть
[Профиль]  [ЛС] 

infiniti-r

Корсар

Пост 23-Апр-2013 11:22 (спустя 14 часов)

[Q] 

Посмотрим! Спасибо!
[Профиль]  [ЛС] 

kinstintin

Гроза морей

Пост 24-Апр-2013 21:46 (спустя 1 день 10 часов)

[Q] 

[Профиль]  [ЛС] 

sergey-309

Морской Волк

Пост 25-Апр-2013 16:51 (спустя 19 часов)

[Q] 

.
[Профиль]  [ЛС] 

гришасемечкин

Корсар

1175

Пост 19-Май-2013 23:46 (спустя 24 дня)

[Q] 

Посмотрим! Оценим! Напишем! А пока :
[Профиль]  [ЛС] 

kolobok0 ®

Морской Волк

151

Пост 14-Окт-2013 21:05 (спустя 4 месяца 25 дней)

[Q] 

поймал *бочку* спасибо)
[Профиль]  [ЛС] 
Показать сообщения:    
Ответить на тему

Текущее время: Сегодня 20:19

Часовой пояс: GMT + 4



Вы не можете начинать темы
Вы не можете отвечать на сообщения
Вы не можете редактировать свои сообщения
Вы не можете удалять свои сообщения
Вы не можете голосовать в опросах
Вы не можете прикреплять файлы к сообщениям
Вы не можете скачивать файлы

▼ Вниз