ML
     
  Уважаемый Гость!
Вы можете поддержать проект и зарегистрироваться у наших партнеров - онлайн-стратегия MyLands. При регистрации в игре Вы получите код, который сможете активировать после регистрации на pirat.ca и получить 1000 дублонов.

Ваш код:
dbd0d701284cde74a1f34d06ce20b7bc75a73e75
 
     

Отдельное поручение (Дмитрий Аверин) [2012 г., боевик, криминал, WEB-DLRip] “Панорама”

Ответить на тему
 
Автор
Сообщение

Пост 28-Апр-2013 15:33

[Q] 

Resident

-Отдельное поручение-- Производство: Россия “Форвард-Фильм”, “Панорама”
Режиссер: Дмитрий Аверин
Жанр: боевик, криминал
Год выпуска: 2012 г.
Продолжительность: 01:27:56
В ролях: Всеволод Цурило, Руслан Кацагаджиев, Анна Некрасова, Александра Сыдорук, Дмитрий Александров, Владимир Бирюков, Евгений Березкин, Иван Батерев, Антон Чернов, Ольга Одинцова, Илья Савельев, Олег Гаянов, Владимир Соснин, Сергей Змигеровский, Владимир Заморин-Описание: Перегоняя по отдельному поручению следователя автомобиль — вещественное доказательство в одном уголовном деле — из Перми в Петербург, Паша Арнаутов оказывается в самом эпицентре противостояния двух бандитских группировок. «Хозяин» посёлка Стастливое, через который пролегал путь арнаутовского «Мерседеса», по прозвищу Цепованный приказывает своим людям напасть на Пашу и отнять у него машину, в которой случайная попутчица Арнаутова могла тайком спрятать флешку с компроматом на Цепованного и его подручных. Несмотря на уговоры местного сторожила Кушнарёва, Паша решает во что бы то ни стало вернуть свою машину и освободить находящуюся в плену у бандитов сотрудницу ФСБ Настю, хозяйку пропавшей флешки. В бой с уголовниками Паше приходится идти одному — только он готов бросить им вызов.-
Качество видео: WEB-DLRip
Контейнер: AVI
Видео кодек: XviD
Аудио кодек: AC3
Видео: Xvid, 1959 kb/s, 720x400, 25 fps, 0.272 bit / pix
Аудио: 48kHz, AC3, 256 kb/s, (2 ch)
Cубтитры: отсутствуют
General
Complete name : W:\Otdeln0e.poruchen1e.2012.WEBDLRip.avi
Format : AVI
Format/Info : Audio Video Interleave
File size : 1.37 GiB
Duration : 1h 27mn
Overall bit rate : 2 226 Kbps
Writing application : VirtualDubMod 1.5.10.2 (build 2540/release)
Writing library : VirtualDubMod build 2540/release
Video
ID : 0
Format : MPEG-4 Visual
Format profile : Advanced [email protected]
Format settings, BVOP : Yes
Format settings, QPel : No
Format settings, GMC : No warppoints
Format settings, Matrix : Default (MPEG)
Codec ID : XVID
Codec ID/Hint : XviD
Duration : 1h 27mn
Bit rate : 1 960 Kbps
Width : 720 pixels
Height : 400 pixels
Display aspect ratio : 16:9
Frame rate : 25.000 fps
Color space : YUV
Chroma subsampling : 4:2:0
Bit depth : 8 bits
Scan type : Progressive
Bits/(Pixel*Frame) : 0.272
Stream size : 1.20 GiB (88%)
Writing library : XviD 1.2.1 (UTC 2008-12-04)
Audio
ID : 1
Format : AC-3
Format/Info : Audio Coding 3
Mode extension : CM (complete main)
Codec ID : 2000
Duration : 1h 27mn
Bit rate mode : Constant
Bit rate : 256 Kbps
Channel(s) : 2 channels
Channel positions : Front: L R
Sampling rate : 48.0 KHz
Bit depth : 16 bits
Stream size : 161 MiB (12%)
Alignment : Split accross interleaves
Interleave, duration : 40 ms (1.00 video frame)
Interleave, preload duration : 500 ms
Download / Скачать

Хотите скачать бесплатно? Зарегистрируйтесь на сайте (ссылка на регистрацию). Pirat.ca - самый быстрый торрент трекер в рунете!

Как скачивать  ·   Что такое торрент  ·   Рейтинг и ограничения

Nemetz

Корсар

Пост 30-Апр-2013 19:17 (спустя 2 дня 3 часа)

[Q] 

Фанатам "ментовских войн" смотреть обязательно!
[Профиль]  [ЛС] 
Показать сообщения:    
Ответить на тему

Текущее время: Сегодня 18:32

Часовой пояс: GMT + 4



Вы не можете начинать темы
Вы не можете отвечать на сообщения
Вы не можете редактировать свои сообщения
Вы не можете удалять свои сообщения
Вы не можете голосовать в опросах
Вы не можете прикреплять файлы к сообщениям
Вы не можете скачивать файлы

▼ Вниз