ML
     
  Уважаемый Гость!
Вы можете поддержать проект и зарегистрироваться у наших партнеров - онлайн-стратегия MyLands. При регистрации в игре Вы получите код, который сможете активировать после регистрации на pirat.ca и получить 1000 дублонов.

Ваш код:
21acd5966619d49ad0b90c3305467b4646cc11a8
 
     

Любовь из пробирки (Илья Хотиненко, Сергей Гиргель) [2013 г., Мелодрама, SATRip]

Ответить на тему
 
Автор
Сообщение

Пост 28-Апр-2013 21:11

[Q] 

Resident

-Любовь из пробирки-- Производство: Россия
Режиссер: Илья Хотиненко, Сергей Гиргель
Жанр: Мелодрама
Год выпуска: 2013 г.
Продолжительность: 01:39:29
Российская премьера: 28 апреля 2013
В ролях: Яна Шивкова, Юрий Батурин, Сергей Комаров (II), Антон Страшко, Ольга Бурлакова, Татьяна Бовкалова, Андрей Карако-Описание: Нине слегка за 30. Так и не встретив настоящую любовь, она решает «родить для себя». Только найти нормального кандидата на роль «папы» оказывается не так-то просто. На помощь сестре приходит находчивая Галина, которая работает в центре репродуктивной медицины. Она отбирает самый лучший «генофонд» для своего будущего племянника. Донором становится шикарный и... ничего не подозревающий клиент центра - бизнесмен Валерий Уваров. ЭКО проходит удачно, и на свет появляется Стёпка... Спустя шесть лет жизнь героини входит в нормальное русло: у неё подрастает сын, находится высокооплачиваемая работа, но... У судьбы на Нину явно свои планы. Неожиданно она узнает, что ее шеф, сухарь и тиран, оказывается, и есть отец Стёпки..-
Качество видео: SATRip
Контейнер: AVI
Видео кодек: XviD
Аудио кодек: MP3
Видео: Xvid, 704x400, 25 fps, ~1850 kbps, 0.262 bit / pix
Аудио: MP3, 44.1 KHz, 2 ch, 128 Kbps
Cубтитры: отсутствуют
General
Complete name : W:\Lybov.iz.probirki.2013.SATRip.avi
Format : AVI
Format/Info : Audio Video Interleave
File size : 1.38 GiB
Duration : 1h 39mn
Overall bit rate : 1 983 Kbps
Writing library : VirtualDub build 18160/release
Video
ID : 0
Format : MPEG-4 Visual
Format profile : Advanced [email protected]
Format settings, BVOP : Yes
Format settings, QPel : No
Format settings, GMC : No warppoints
Format settings, Matrix : Default (MPEG)
Muxing mode : Packed bitstream
Codec ID : XVID
Codec ID/Hint : XviD
Duration : 1h 39mn
Bit rate : 1 845 Kbps
Width : 704 pixels
Height : 400 pixels
Display aspect ratio : 16:9
Frame rate : 25.000 fps
Color space : YUV
Chroma subsampling : 4:2:0
Bit depth : 8 bits
Scan type : Progressive
Bits/(Pixel*Frame) : 0.262
Stream size : 1.28 GiB (93%)
Writing library : XviD 64
Audio
ID : 1
Format : MPEG Audio
Format version : Version 1
Format profile : Layer 3
Mode : Joint stereo
Mode extension : MS Stereo
Codec ID : 55
Codec ID/Hint : MP3
Duration : 1h 39mn
Bit rate mode : Constant
Bit rate : 128 Kbps
Channel(s) : 2 channels
Sampling rate : 44.1 KHz
Stream size : 91.1 MiB (6%)
Alignment : Split accross interleaves
Interleave, duration : 40 ms (1.00 video frame)
Interleave, preload duration : 500 ms
Download / Скачать

Хотите скачать бесплатно? Зарегистрируйтесь на сайте (ссылка на регистрацию). Pirat.ca - самый быстрый торрент трекер в рунете!

Как скачивать  ·   Что такое торрент  ·   Рейтинг и ограничения

Пост 28-Апр-2013 21:36 (спустя 25 минут)

Топик был перенесен из форума Наше кино (Трюм) в форум Новинки (HD|DVD|BD| TV|SAT|PDTV| - Rips)

ara1205
 

Саша1959

Флибустьер

Пост 29-Апр-2013 01:16 (спустя 4 часа)

[Q] 

[Профиль]  [ЛС] 

янка-сан

Гроза морей

Пост 29-Апр-2013 05:30 (спустя 4 часа)

[Q] 


мылодрама, как мылодрама. о наконец то сложившемся женском счастье. особенно быстро оно складывалось в конце фильма. так быстро, что играть актерам уже некогда было, а у сценаристов времени вовсе не осталось.
[Профиль]  [ЛС] 

vovapowers

Морской Волк

Пост 29-Апр-2013 18:30 (спустя 13 часов)

[Q] 

кинопоиск-7.31/10
[Профиль]  [ЛС] 

DmMur

Шкипер

Пост 02-Май-2013 20:51 (спустя 3 дня)

[Q] 

позырю
[Профиль]  [ЛС] 

ALES_LVOV

Морской Волк

Пост 03-Май-2013 00:18 (спустя 3 часа)

[Q] 

[Профиль]  [ЛС] 

denaranov

Корсар

Пост 03-Май-2013 02:17 (спустя 1 час 59 минут)

[Q] 

[Профиль]  [ЛС] 
Показать сообщения:    
Ответить на тему

Текущее время: Сегодня 23:20

Часовой пояс: GMT + 4



Вы не можете начинать темы
Вы не можете отвечать на сообщения
Вы не можете редактировать свои сообщения
Вы не можете удалять свои сообщения
Вы не можете голосовать в опросах
Вы не можете прикреплять файлы к сообщениям
Вы не можете скачивать файлы

▼ Вниз