ML
     
  Уважаемый Гость!
Вы можете поддержать проект и зарегистрироваться у наших партнеров - онлайн-стратегия MyLands. При регистрации в игре Вы получите код, который сможете активировать после регистрации на pirat.ca и получить 1000 дублонов.

Ваш код:
8b29d0f8cd61fe457e59e7df0aa1fab41a2b88b9
 
     

Хроника "Ада" (Михаил Шевчук) [2006 г., боевик, военный, DVDRip]

Ответить на тему
 
Автор
Сообщение

Пост 03-Май-2013 17:21

[Q] 

cergo

Гроза морей

-Хроника "Ада"-- Производство: Россия, ООО "Максимус"
Режиссер: Михаил Шевчук
Жанр: боевик, военный
Год выпуска: 2006 г.
Продолжительность: 01:40:43
Дата выхода DVD: 14 января 2010, «Азимут»
В ролях: Александр Соловьев мл., Владислав Демин, Гейдар Садыхов, Глафира Тарханова, Руслан Гад, Юрий Сысоев, Алексей Фаддеев, Виктор Бунаков, Виталий Зикора
-Описание: 1943 год. Советское командование отправляет в тыл врага разведгруппу во главе с капитаном Тенегиным. Их задача – уничтожить секретную лабораторию, где фашисты проводят опыты над военнопленными с целью создания препарата, способного во много раз увеличить силу и выносливость человека. Но на пути бесстрашного отряда стоят солдаты рейха, уже испытавшие на себе действие препарата…-КиноПоиск
Качество видео: DVDRip
Контейнер: AVI
Видео кодек: XviD
Аудио кодек: AC3
Видео: 704x384 (1.83:1), 25 fps, XviD build 73 ~1690 kbps avg, 0.25 bit/pixel
Аудио: 48 kHz, AC3 Dolby Digital, 3/2 (L,C,R,l,r) + LFE ch, ~384 kbps
Cубтитры: отсутствуют
Общее
Полное имя : D:\Архив\ФИЛЬМЫ\Hronika_«Ada»_2006_DVDRip.avi
Формат : AVI
Формат/Информация : Audio Video Interleave
Размер файла : 1,46 Гбайт
Продолжительность : 1 ч. 40 м.
Общий поток : 2084 Кбит/сек
Программа кодирования : VirtualDubMod 1.5.10.3 | www.virtualdub-fr.org || (build 2550/release)
Библиотека кодирования : VirtualDubMod build 2550/release
Видео
Идентификатор : 0
Формат : MPEG-4 Visual
Профиль формата : Advanced [email protected]
Параметр BVOP формата : 1
Параметр QPel формата : Нет
Параметр GMC формата : Без точки перехода
Параметр матрицы формата : Выборочная
Идентификатор кодека : XVID
Идентификатор кодека/Подсказка : XviD
Продолжительность : 1 ч. 40 м.
Битрейт : 1690 Кбит/сек
Ширина : 704 пикселя
Высота : 384 пикселя
Соотношение сторон : 1,85:1
Частота кадров : 25,000 кадров/сек
Цветовое пространство : YUV
Субдискретизация насыщенности : 4:2:0
Битовая глубина : 8 бит
Тип развёртки : Прогрессивная
Метод сжатия : С потерями
Бит/(Пиксели*Кадры) : 0.250
Размер потока : 1,18 Гбайт (81%)
Библиотека кодирования : XviD 73
Аудио
Идентификатор : 1
Формат : AC-3
Формат/Информация : Audio Coding 3
Расширение режима : CM (complete main)
Параметр Endianness формата : Big
Идентификатор кодека : 2000
Продолжительность : 1 ч. 40 м.
Вид битрейта : Постоянный
Битрейт : 384 Кбит/сек
Каналы : 6 каналов
Расположение каналов : Front: L C R, Side: L R, LFE
Частота : 48,0 КГц
Битовая глубина : 16 бит
Метод сжатия : С потерями
Размер потока : 275 Мбайт (18%)
Выравнивание : Разделение по промежуткам
Продолжительность промежутка : 40 мс. (1,00 видеокадр)
Время предзагрузки промежутка : 500 мс.
Download / Скачать

Хотите скачать бесплатно? Зарегистрируйтесь на сайте (ссылка на регистрацию). Pirat.ca - самый быстрый торрент трекер в рунете!

Как скачивать  ·   Что такое торрент  ·   Рейтинг и ограничения

Пост 03-Май-2013 19:12 (спустя 1 час 51 минута)

Топик был перенесен из форума Наше кино (Трюм) в форум Российские фильмы

erchine
 

okorm

889

Пост 04-Май-2013 11:56 (спустя 18 часов)

[Q] 

[Профиль]  [ЛС] 

cergo ®

Гроза морей

20058

Пост 04-Май-2013 12:16 (спустя 20 минут)

[Q] 

okorm, litti, Су-34, aa az
[Профиль]  [ЛС] 

litti

Флибустьер

Пост 11-Май-2013 21:54 (спустя 7 дней)

[Q] 


_________________
Маньяком быть ты не обязан,
но сексуальным должен быть...
[Профиль]  [ЛС] 

Су-34

Гроза морей

10391

Пост 14-Май-2013 20:32 (спустя 2 дня 22 часа)

[Q] 

[Профиль]  [ЛС] 

vlad732007

Корсар

Пост 31-Июл-2013 19:31 (спустя 2 месяца 16 дней)

[Q] 

интересный и добрый фильм с элементами кунг фу, мне понравился, советую всем смотреть Мне понравилось
[Профиль]  [ЛС] 
Показать сообщения:    
Ответить на тему

Текущее время: Сегодня 21:23

Часовой пояс: GMT + 4



Вы не можете начинать темы
Вы не можете отвечать на сообщения
Вы не можете редактировать свои сообщения
Вы не можете удалять свои сообщения
Вы не можете голосовать в опросах
Вы не можете прикреплять файлы к сообщениям
Вы не можете скачивать файлы

▼ Вниз