ML
     
  Уважаемый Гость!
Вы можете поддержать проект и зарегистрироваться у наших партнеров - онлайн-стратегия MyLands. При регистрации в игре Вы получите код, который сможете активировать после регистрации на pirat.ca и получить 1000 дублонов.

Ваш код:
21acd5966619d49ad0b90c3305467b4646cc11a8
 
     

Аферисты (Всеволод Шиловский) [1990 г., Комедия., SATRip]

Ответить на тему
 
Автор
Сообщение

Пост 23-Дек-2011 19:34

[Q] 

alexandr.x79

Корсар

Аферисты
Год выпуска: 1990
Жанр: Комедия.
Продолжительность: 01:19:15
Режиссер: Всеволод Шиловский
В ролях: Станислав Садальский,Мамука Кикалейшвили,Всеволод Шиловский,Римма Маркова,Михаил Кокшенов,Нина Русланова,Наталья Крачковская,Лев Борисов,Евгений Весник,Роман Филиппов.
Описание: Забавные приключения трех жуликов: Рубика, Маруси и Филимона, промышляющих в поисках икон и выдающих себя попеременно за артистов, художников или искусствоведов…
Источник/Качество: SATRip
Формат: AVI
Видео кодек: DivX
Аудио кодек: MPEG Audio
Видео: 704x496 (1.42:1), 25 fps, DivX Codec 6.8.5/6.9.1 ~2222 kbps avg, 0.25 bit/pixel
Аудио: 48 kHz, Microsoft MPEG, 2 ch, ~192.00 kbps avg
Формат : AVI
Формат/Информация : Audio Video Interleave
Размер файла : 1,34 Гбайт
Продолжительность : 1 ч. 19 м.
Общий поток : 2424 Кбит/сек
Программа кодирования : VirtualDubMod 1.5.10.2 (build 2540/release)
Библиотека кодирования : VirtualDubMod build 2540/release
Видео
Идентификатор : 0
Формат : MPEG-4 Visual
Параметр BVOP формата : 1
Параметр QPel формата : Нет
Параметр GMC формата : Без точки перехода
Параметр матрицы формата : Default (H.263)
Режим смешивания : Сжатый битовый поток
Идентификатор кодека : DX50
Идентификатор кодека/Подсказка : DivX 5
Продолжительность : 1 ч. 19 м.
Битрейт : 2222 Кбит/сек
Ширина : 704 пикселя
Высота : 496 пикселей
Соотношение сторон : 1,419
Частота кадров : 25,000 кадров/сек
Цветовое пространство : YUV
Субдискретизация насыщенности : 4:2:0
Битовая глубина : 8 бит
Тип развёртки : Прогрессивная
Метод сжатия : С потерями
Бит/(Пиксели*Кадры) : 0.255
Размер потока : 1,23 Гбайт (92%)
Библиотека кодирования : DivX 6.8.5 (UTC 2009-08-20)
Аудио
Идентификатор : 1
Формат : MPEG Audio
Версия формата : Version 1
Профиль формата : Layer 2
Идентификатор кодека : 50
Продолжительность : 1 ч. 19 м.
Вид битрейта : Постоянный
Битрейт : 192 Кбит/сек
Каналы : 2 канала
Частота : 48,0 КГц
Метод сжатия : С потерями
Размер потока : 109 Мбайт (8%)
Выравнивание : Соединение по промежуткам
Продолжительность промежутка : 40 мс. (1,00 видеокадр)
Время предзагрузки промежутка : 504 мс.
Download / Скачать

Хотите скачать бесплатно? Зарегистрируйтесь на сайте (ссылка на регистрацию). Pirat.ca - самый быстрый торрент трекер в рунете!

Как скачивать  ·   Что такое торрент  ·   Рейтинг и ограничения



Последний раз редактировалось: alexandr.x79 (2011-12-24 18:09), всего редактировалось 2 раз(а)

Пост 25-Дек-2011 11:32 (спустя 1 день 15 часов)

Топик был перенесен из форума Наше Кино в форум Российские фильмы

Skinwalker
 
Показать сообщения:    
Ответить на тему

Текущее время: Сегодня 23:17

Часовой пояс: GMT + 4



Вы не можете начинать темы
Вы не можете отвечать на сообщения
Вы не можете редактировать свои сообщения
Вы не можете удалять свои сообщения
Вы не можете голосовать в опросах
Вы не можете прикреплять файлы к сообщениям
Вы не можете скачивать файлы

▼ Вниз