ML
     
  Уважаемый Гость!
Вы можете поддержать проект и зарегистрироваться у наших партнеров - онлайн-стратегия MyLands. При регистрации в игре Вы получите код, который сможете активировать после регистрации на pirat.ca и получить 1000 дублонов.

Ваш код:
4855957e17f50c5c1236a0f8c4492b2b0bba00a0
 
     

Часовщик (Алексей Феоктистов) [2013 г., Боевик, криминал, драма, TVRip]

Ответить на тему
 
Автор
Сообщение

Пост 20-Май-2013 20:44

[Q] 

cergo

Гроза морей

-Часовщик--
Производство: Россия, ПРО100 Фильм
Режиссер: Алексей Феоктистов
Жанр: Боевик, криминал, драма
Год выпуска: 2013 г.
Продолжительность: 01:27:46
В ролях: Ольга Дибцева, Максим Дрозд, Андрей Харыбин, Борис Клюев, Олеся Поташинская, Дмитрий Супонин.-Описание: Феликс, прозванный за свое увлечение коллекционированием часов «часовщиком», служит в секретном элитном подразделении «ликвидаторов». Он высокопрофессиональный безукоризненный киллер, который всегда работает по правилам — «чисто» во время и без следов. И это оборотная медаль его прозвища. У него всегда все точно и все «по часам».Такая работа требует полного самообладания и беспристрастности, и в своём деле ему нет равных. Феликс всегда работал один, но ему пришлось стать наставником молодого и отчаянного Бориса. Феликс хочет закончить свою карьеру. Но просто так выйти из дел нельзя и он начинает готовить себе замену. Но, как бы не хотел главный герой всех уважить, как известно, из такой профессии есть только один выход... Методичный профессионал и импульсивный ученик теперь на пару «устраняют проблемы», но рано или поздно они сойдутся в смертельной схватке...-Сэмпл
Качество видео: TVRip
Контейнер: AVI
Видео кодек: XviD
Аудио кодек: AC3
Видео: 704x400 (1.76:1), 25 fps, XviD MPEG-4 ~2152 kbps avg, 0.30 bit/pixel
Аудио: 48 kHz, AC3 Dolby Digital, 2/0 (L,R) ch, ~192 kbps
Cубтитры: отсутствуют
Общее
Полное имя : D:\4asovwik.2012.XviD.TVRip.avi
Формат : AVI
Формат/Информация : Audio Video Interleave
Размер файла : 1,44 Гбайт
Продолжительность : 1 ч. 27 м.
Общий поток : 2355 Кбит/сек
Программа кодирования : VirtualDubMod 1.5.10.3 | www.virtualdub-fr.org || (build 2550/release)
Библиотека кодирования : VirtualDubMod build 2550/release
Видео
Идентификатор : 0
Формат : MPEG-4 Visual
Профиль формата : [email protected]
Параметр BVOP формата : Нет
Параметр QPel формата : Нет
Параметр GMC формата : Без точки перехода
Параметр матрицы формата : Default (H.263)
Идентификатор кодека : XVID
Идентификатор кодека/Подсказка : XviD
Продолжительность : 1 ч. 27 м.
Битрейт : 2153 Кбит/сек
Ширина : 704 пикселя
Высота : 400 пикселей
Соотношение сторон : 16:9
Частота кадров : 25,000 кадров/сек
Цветовое пространство : YUV
Субдискретизация насыщенности : 4:2:0
Битовая глубина : 8 бит
Тип развёртки : Прогрессивная
Метод сжатия : С потерями
Бит/(Пиксели*Кадры) : 0.306
Размер потока : 1,32 Гбайт (91%)
Библиотека кодирования : Lavc53.33.0
Аудио
Идентификатор : 1
Формат : AC-3
Формат/Информация : Audio Coding 3
Расширение режима : CM (complete main)
Параметр Endianness формата : Big
Идентификатор кодека : 2000
Продолжительность : 1 ч. 27 м.
Вид битрейта : Постоянный
Битрейт : 192 Кбит/сек
Каналы : 2 канала
Расположение каналов : Front: L R
Частота : 48,0 КГц
Битовая глубина : 16 бит
Метод сжатия : С потерями
Размер потока : 121 Мбайт (8%)
Выравнивание : Разделение по промежуткам
Продолжительность промежутка : 40 мс. (1,00 видеокадр)
Время предзагрузки промежутка : 500 мс.
Download / Скачать

Хотите скачать бесплатно? Зарегистрируйтесь на сайте (ссылка на регистрацию). Pirat.ca - самый быстрый торрент трекер в рунете!

Как скачивать  ·   Что такое торрент  ·   Рейтинг и ограничения

Пост 20-Май-2013 23:26 (спустя 2 часа 42 минуты)

Топик был перенесен из форума Наше кино (Трюм) в форум Новинки (HD|DVD|BD| TV|SAT|PDTV| - Rips)

ara1205
 

Stalker_29

Корсар

Пост 21-Май-2013 11:43 (спустя 14 часов)

[Q] 

Заценим))
[Профиль]  [ЛС] 

sleandr

Шкипер

Пост 21-Май-2013 13:28 (спустя 1 час 45 минут)

[Q] 

Передрали "Механик" один в один.
Даже диалоги одни и те же.
[Профиль]  [ЛС] 

veter510

Флибустьер

Пост 21-Май-2013 14:06 (спустя 37 минут)

[Q] 

sleandr, ну это и как "День Д" передрали с "Коммандос"...фантазии сценаристов иссякают, а может им просто кажется, что-то типа "похоже, но наше круче!". Одним словом, плагиат!
[Профиль]  [ЛС] 

лысый 9999

Морской Волк

Пост 21-Май-2013 15:38 (спустя 1 час 32 минуты)

[Q] 

[Профиль]  [ЛС] 

Stalker_29

Корсар

Пост 21-Май-2013 16:29 (спустя 50 минут)

[Q] 

"Механик" Стетхема в нашем исполнении-точь в точь)))
Ток у Стетхема намного покруче будет
[Профиль]  [ЛС] 

SCORPION.

Морской Волк

Пост 21-Май-2013 18:43 (спустя 2 часа 14 минут)

[Q] 

[Профиль]  [ЛС] 

dariosk

Лоцман

Пост 21-Май-2013 19:16 (спустя 32 минуты)

[Q] 

Видимо, наши решили состряпать свой Российский Болливуд!... dk
[Профиль]  [ЛС] 

Alex_Punisher

Морской Волк

Пост 22-Май-2013 12:36 (спустя 17 часов)

[Q] 

Дрозд уже и Перевозчиком был теперь и Механник , что следущее Смертельная гонка или Андреналин ???
[Профиль]  [ЛС] 

infiniti-r

Корсар

Пост 22-Май-2013 15:11 (спустя 2 часа 34 минуты)

[Q] 

[Профиль]  [ЛС] 

OleksBy

Корсар

Пост 22-Май-2013 16:13 (спустя 1 час 1 минута)

[Q] 

[Профиль]  [ЛС] 

Asp0

Морской Волк

Пост 26-Май-2013 00:05 (спустя 3 дня)

[Q] 

Жуткая халтура. bu Чего только стоят пейнтбольные "ранения". bi
[Профиль]  [ЛС] 

Alex Yz

Гроза морей

Пост 30-Май-2013 11:55 (спустя 4 дня)

[Q] 

После Механика смотреть не стоит. ОТКРОВЕННО ПЛОХО.
[Профиль]  [ЛС] 

alexkalchenko

Корсар

40

Пост 30-Май-2013 16:55 (спустя 4 часа)

[Q] 

полный отстой , лучше чего-нибудь свое придумали чем такую лажу снять . выглядит как китайская подделка на черкизоне.
[Профиль]  [ЛС] 

watsonix

Флибустьер

Пост 04-Июн-2013 20:59 (спустя 5 дней)

[Q] 

[Профиль]  [ЛС] 

Saigak

Лоцман

Пост 06-Июн-2013 14:32 (спустя 1 день 17 часов)

[Q] 

Халтура полная не тратьте время
[Профиль]  [ЛС] 

Дмитров

Морской Волк

Пост 09-Июн-2013 12:44 (спустя 2 дня 22 часа)

[Q] 

Зря потратил время-игра актеров в фильме даже хуже,чем в сериалах.
[Профиль]  [ЛС] 

Zmutant

Морской Волк

1

Пост 18-Июн-2013 18:52 (спустя 9 дней)

[Q] 

Так себе, Г
[Профиль]  [ЛС] 

Dvorkin

Лоцман

Пост 20-Июн-2013 18:51 (спустя 1 день 23 часа)

[Q] 

Аж блевать тянет от этой порнухи, ну что за фуфлыжник этот Феоктистов
[Профиль]  [ЛС] 

cergo ®

Гроза морей

20061

Пост 20-Июн-2013 19:00 (спустя 9 минут)

[Q] 

385431Аж блевать тянет от этой порнухи, ну что за фуфлыжник этот Феоктистов
я тоже рад что вам понравилось
[Профиль]  [ЛС] 

Пост 27-Июн-2013 10:19 (спустя 6 дней)

Топик был перенесен из форума Новинки (HD|DVD|BD| TV|SAT|PDTV| - Rips) в форум Российские фильмы

ara1205
 

alex denver71

Флибустьер

Пост 30-Июн-2013 21:53 (спустя 10 дней)

[Q] 

фильм так себе bl механик конечно же по сравнению с этим: ay ay ay
[Профиль]  [ЛС] 

ЛикиС

Пост 03-Июл-2013 08:23 (спустя 2 дня 10 часов)

[Q] 

так и не мог врубится как здесь че скачивать здесь много лишнего по моему!!!!!!!!!!!!!!!!!!!!!!!!!!!!!!!!!!!!!!1
[Профиль]  [ЛС] 

cergo ®

Гроза морей

20061

Пост 03-Июл-2013 16:28 (спустя 8 часов)

[Q] 

390497так и не мог врубится как здесь че скачивать здесь много лишнего по моему!!!!!!!!!!!!!!!!!!!!!!!!!!!!!!!!!!!!!!1
[Профиль]  [ЛС] 

R_O_Z_A

Морской Волк

Пост 25-Фев-2015 21:57 (спустя 1 год 7 месяцев)

[Q] 

Спасибо, фильм понравился
[Профиль]  [ЛС] 
Показать сообщения:    
Ответить на тему

Текущее время: Сегодня 06:14

Часовой пояс: GMT + 4



Вы не можете начинать темы
Вы не можете отвечать на сообщения
Вы не можете редактировать свои сообщения
Вы не можете удалять свои сообщения
Вы не можете голосовать в опросах
Вы не можете прикреплять файлы к сообщениям
Вы не можете скачивать файлы

▼ Вниз