ML
     
  Уважаемый Гость!
Вы можете поддержать проект и зарегистрироваться у наших партнеров - онлайн-стратегия MyLands. При регистрации в игре Вы получите код, который сможете активировать после регистрации на pirat.ca и получить 1000 дублонов.

Ваш код:
dbd0d701284cde74a1f34d06ce20b7bc75a73e75
 
     

Любовь в СССР (Карен Шахназаров) [2012 г., мелодрама, BDRip] «Мосфильм-Мастер»

Ответить на тему
 
Автор
Сообщение

Пост 21-Май-2013 11:15

[Q] 

Resident

-Любовь в СССР-- Производство: Россия / Курьер, Мосфильм, МОСФИЛЬМ-мастер
Режиссер: Карен Шахназаров
Жанр: мелодрама
Год выпуска: 2012 г.
Продолжительность: 01:31:08
Перевод: Оригинальное [Лицензия]
Российская премьера: 28 февраля 2013, «Мосфильм-Мастер»
В ролях: Александр Ляпин, Лидия Милюзина, Егор Барановский, Иван Купреенко, Армен Джигарханян, Ольга Тумайкина, Янина Калганова-Описание: В основе сюжета - классический любовный треугольник. Сергей и Степан учатся в одном институте и оба влюблены в однокурсницу Людмилу. Чувство соперничества постоянно провоцирует их на участие в разных нелепых историях, в итоге благие намерения оборачиваются ссорами друг с другом и любимой девушкой. Особенно не везет Сергею. Он горяч, импульсивен, бесшабашен - полная противоположность спокойному, внимательному и надежному Степану. Людмиле не просто решиться, а тут еще Сергей назло ей укатил в Гагры с другой девушкой… Когда кураж прошел и Сергей понял, что ему никто не нужен, кроме Людмилы, он возвращается в Москву, чтобы сделать ей предложение, но, похоже, судьба в очередной раз приготовила ему сюрприз…-
Качество видео: BDRip
Контейнер: AVI
Видео кодек: XviD
Аудио кодек: AC3
Видео: 720x432 (1.67:1), 23.976 fps, XviD build 50 ~1826 kbps avg, 0.25 bit/pixel
Аудио: 48 kHz, AC3 Dolby Digital, 3/2 (L,C,R,l,r) + LFE ch, ~448 kbps
Cубтитры: отсутствуют
General
Complete name : W:\Ljubov.v.SSSR.2012.BDRip.avi
Format : AVI
Format/Info : Audio Video Interleave
File size : 1.45 GiB
Duration : 1h 31mn
Overall bit rate : 2 284 Kbps
Movie name : Ljubov.v.SSSR.2012.BDRip
Genre : Romance/Erotic
Writing application : VirtualDubMod 1.5.10.3 | (build 2550/release)
Original source form/Name : Movie
Video
ID : 0
Format : MPEG-4 Visual
Format profile : Advanced [email protected]
Format settings, BVOP : Yes
Format settings, QPel : No
Format settings, GMC : No warppoints
Format settings, Matrix : Custom
Codec ID : XVID
Codec ID/Hint : XviD
Duration : 1h 31mn
Bit rate : 1 827 Kbps
Width : 720 pixels
Height : 432 pixels
Display aspect ratio : 1.667
Frame rate : 23.976 fps
Color space : YUV
Chroma subsampling : 4:2:0
Bit depth : 8 bits
Scan type : Progressive
Bits/(Pixel*Frame) : 0.245
Stream size : 1.16 GiB (80%)
Writing library : XviD 1.2.1 (UTC 2008-12-04)
Audio
ID : 1
Format : AC-3
Format/Info : Audio Coding 3
Mode extension : CM (complete main)
Codec ID : 2000
Duration : 1h 31mn
Bit rate mode : Constant
Bit rate : 448 Kbps
Channel(s) : 6 channels
Channel positions : Front: L C R, Side: L R, LFE
Sampling rate : 48.0 KHz
Bit depth : 16 bits
Stream size : 292 MiB (20%)
Alignment : Split accross interleaves
Interleave, duration : 42 ms (1.00 video frame)
Interleave, preload duration : 500 ms
Download / Скачать

Хотите скачать бесплатно? Зарегистрируйтесь на сайте (ссылка на регистрацию). Pirat.ca - самый быстрый торрент трекер в рунете!

Как скачивать  ·   Что такое торрент  ·   Рейтинг и ограничения

Пост 21-Май-2013 11:25 (спустя 10 минут)

Топик был перенесен из форума Наше кино (Трюм) в форум Новинки (HD|DVD|BD| TV|SAT|PDTV| - Rips)

ara1205
 

yulya230784

Морской Волк

927

Пост 21-Май-2013 12:01 (спустя 46 минут)

[Q] 

Посмотрим! Автору Спасибо
[Профиль]  [ЛС] 

Sector_X

Гроза морей

309

Пост 21-Май-2013 12:35 (спустя 33 минуты)

[Q] 


_________________
[Профиль]  [ЛС] 

olegnf

Шкипер

Пост 21-Май-2013 20:01 (спустя 7 часов)

[Q] 

[Профиль]  [ЛС] 

tony7673

Лоцман

Пост 22-Май-2013 09:46 (спустя 13 часов)

[Q] 

Это же "Исчезнувшая империя" того же Шахназарова фильм 2008 года.....
[Профиль]  [ЛС] 

infiniti-r

Корсар

Пост 22-Май-2013 15:12 (спустя 5 часов)

[Q] 

[Профиль]  [ЛС] 

poradoxxx3915300

Лоцман

Пост 21-Июн-2013 23:50 (спустя 30 дней)

[Q] 

да это фильм 2008г, очень интересный
[Профиль]  [ЛС] 

Jek@

Легенда

Пост 24-Июн-2013 07:47 (спустя 2 дня 7 часов)

[Q] 

.
[Профиль]  [ЛС] 

MakAVP

Морской Волк

18

Пост 24-Июн-2013 18:18 (спустя 10 часов)

[Q] 


_________________

[Профиль]  [ЛС] 

янка-сан

Гроза морей

Пост 26-Июн-2013 22:32 (спустя 2 дня 4 часа)

[Q] 

[Профиль]  [ЛС] 

Пост 27-Июн-2013 10:15 (спустя 11 часов)

Топик был перенесен из форума Новинки (HD|DVD|BD| TV|SAT|PDTV| - Rips) в форум Российские фильмы

ara1205
 

denis1705

Корсар

Пост 01-Сен-2013 17:05 (спустя 2 месяца 5 дней)

[Q] 

!COOL!
[Профиль]  [ЛС] 

ТАЛИ

Корсар

Пост 03-Июн-2016 21:50 (спустя 2 года 9 месяцев)

[Q] 

Это сокращенная версия "Исчезнувшей империи". Никакой другой причины подобной переделки, кроме как бессовестного желания безо всяких усилий срубить бабла на волне популярности оригинала - я не вижу... Я бы еще поняла, если бы добавили чего-нибудь, с другими актерами сняли, но вот так внаглую, причем такой именитый режиссер... Ипотеку чтоль взял и срочно деньги нужны были?
А так - фильм хороший, атмосфера 70-х передана с любовью и грустью, возможно даже аутентична, не могу судить, т.к. не застала. И лучше посмотреть первоначальную версию, мне кажется.
[Профиль]  [ЛС] 
Показать сообщения:    
Ответить на тему

Текущее время: Сегодня 18:30

Часовой пояс: GMT + 4



Вы не можете начинать темы
Вы не можете отвечать на сообщения
Вы не можете редактировать свои сообщения
Вы не можете удалять свои сообщения
Вы не можете голосовать в опросах
Вы не можете прикреплять файлы к сообщениям
Вы не можете скачивать файлы

▼ Вниз