ML
     
  Уважаемый Гость!
Вы можете поддержать проект и зарегистрироваться у наших партнеров - онлайн-стратегия MyLands. При регистрации в игре Вы получите код, который сможете активировать после регистрации на pirat.ca и получить 1000 дублонов.

Ваш код:
74c28610d77aaac24ba694c4128f3b9b46b04220
 
     

Баксы (Гульшад Омарова) [2008 г., фэнтези, драма, DVDRip]

Ответить на тему
 
Автор
Сообщение

Пост 23-Май-2013 02:48

[Q] 

sandman1973

Гроза морей

-Баксы-«Баксы» — это казахское слово, с ударением на второй слог, означает «шаман».- Производство: Россия, Германия, Казахстан, Франция
Режиссер: Гульшад Омарова
Жанр: фэнтези, драма
Год выпуска: 2008 г.
Продолжительность: 01:27:00
Российская премьера: 2 октября 2008
Дата выхода DVD: 12 марта 2009
В ролях: Несипкуль Омарбекова, Фархад Аманкулов, Алмат Аянов, Толепберген Байсакалов, Асель Абутова, Нурлан Алимжанов, Токтар Бексенов, Саят Мерекенов, Олжас Нусупбаев, Азамат Сатыбалды-Описание: На клочке казахской степи всего в нескольких метрах от автотрассы живет потомственная шаманка — баксы Айдай. Она помогает найти украденный скот, пропавших мужей и лечит алкоголизм. Но на землю, где живут Айдай и люди, которым она помогает, «положил глаз» богатый бизнесмен. Баксы категорически отказывается покидать свою землю.
Это святая земля, земля предков. Только здесь она может лечить. Когда бандиты пытаются силой выгнать ее из дома, Айдай проклинает их. На защиту колдуньи встает Батыр, чью жену Айдай когда-то излечила от бесплодия. Конфликт разгорается. Все мирные средства исчерпаны, кровавая развязка неизбежна…-
Качество видео: DVDRip
Контейнер: AVI
Видео кодек: XviD
Аудио кодек: AC3
Видео: 672x384 (1.75:1), 25 fps, XviD Final 1.0.3 (build 37) 1898 kbps avg, 0.29 bit/pixel
Аудио: 48 kHz, AC3 Dolby Digital, 3/2 (L,C,R,l,r) + LFE ch, ~448 kbps
Cубтитры: отсутствуют
Общее
Полное имя : E:\Загрузки\Баксы.2008.avi
Формат : AVI
Формат/Информация : Audio Video Interleave
Размер файла : 1,36 Гбайт
Продолжительность : 1 ч. 22 м.
Общий поток : 2356 Кбит/сек
Программа кодирования : VirtualDubMod 1.5.10.2 (build 2540/release)
Библиотека кодирования : VirtualDubMod build 2540/release
Видео
Идентификатор : 0
Формат : MPEG-4 Visual
Профиль формата : Advanced [email protected]
Параметр BVOP формата : 2
Параметр QPel формата : Нет
Параметр GMC формата : Без точки перехода
Параметр матрицы формата : Default (MPEG)
Режим смешивания : Сжатый битовый поток
Идентификатор кодека : XVID
Идентификатор кодека/Подсказка : XviD
Продолжительность : 1 ч. 22 м.
Битрейт : 1898 Кбит/сек
Ширина : 672 пикселя
Высота : 384 пикселя
Соотношение сторон : 16:9
Частота кадров : 25,000 кадров/сек
Цветовое пространство : YUV
Субдискретизация насыщенности : 4:2:0
Битовая глубина : 8 бит
Тип развёртки : Прогрессивная
Метод сжатия : С потерями
Бит/(Пиксели*Кадры) : 0.294
Размер потока : 1,10 Гбайт (81%)
Библиотека кодирования : XviD 1.0.3 (UTC 2004-12-20)
Аудио
Идентификатор : 1
Формат : AC-3
Формат/Информация : Audio Coding 3
Расширение режима : CM (complete main)
Параметр Endianness формата : Big
Идентификатор кодека : 2000
Продолжительность : 1 ч. 22 м.
Вид битрейта : Постоянный
Битрейт : 448 Кбит/сек
Каналы : 6 каналов
Расположение каналов : Front: L C R, Side: L R, LFE
Частота : 48,0 КГц
Битовая глубина : 16 бит
Метод сжатия : С потерями
Размер потока : 266 Мбайт (19%)
Выравнивание : Разделение по промежуткам
Продолжительность промежутка : 40 мс. (1,00 видеокадр)
Время предзагрузки промежутка : 500 мс.
Download / Скачать

Хотите скачать бесплатно? Зарегистрируйтесь на сайте (ссылка на регистрацию). Pirat.ca - самый быстрый торрент трекер в рунете!

Как скачивать  ·   Что такое торрент  ·   Рейтинг и ограничения

Пост 23-Май-2013 09:54 (спустя 7 часов)

Топик был перенесен из форума Наше кино (Трюм) в форум Российские фильмы

ara1205
 
Показать сообщения:    
Ответить на тему

Текущее время: Сегодня 09:58

Часовой пояс: GMT + 4



Вы не можете начинать темы
Вы не можете отвечать на сообщения
Вы не можете редактировать свои сообщения
Вы не можете удалять свои сообщения
Вы не можете голосовать в опросах
Вы не можете прикреплять файлы к сообщениям
Вы не можете скачивать файлы

▼ Вниз