ML
     
  Уважаемый Гость!
Вы можете поддержать проект и зарегистрироваться у наших партнеров - онлайн-стратегия MyLands. При регистрации в игре Вы получите код, который сможете активировать после регистрации на pirat.ca и получить 1000 дублонов.

Ваш код:
1a5b0a965618b2c406d4279ec9924ee6282c60cf
 
     

Легенда №17 (Николай Лебедев) [2013 г., спорт, драма, биография, HDRip] [Лицензия]

Страницы :  1, 2, 3  След.

Ответить на тему
 
Автор
Сообщение

Пост 24-Май-2013 22:54

[Q] 

ara1205

-Легенда №17-- Производство: Россия
Год выпуска: 2013 г.
Жанр: спорт, драма, биография
Продолжительность: 02:08:10
Дата выхода DVD: 30 мая 2013
Перевод: Не требуется [Лицензия]-Режиссер: Николай Лебедев-В ролях: Данила Козловский, Олег Меньшиков, Владимир Меньшов, Борис Щербаков, Роман Мадянов, Светлана Иванова, Дарья Екамасова, Гёц Отто, Алехандра Грепи, Александр Рагулин-Описание: 2 сентября 1972 года. Монреаль. Хоккейная сборная СССР с разгромным счетом 7:3 победила канадских профессионалов из НХЛ в стартовом матче эпохальной Суперсерии СССР-Канада. Это была не просто игра, это была битва за свою страну, которая перевернула мировое представление о хоккее.
Теперь весь мир знал его просто по номеру «17». Валерий Харламов, забивший в том матче 2 шайбы, мгновенно взлетел на вершину славы. Сбылась его мечта -упорство, спортивный талант и суровые уроки великого тренера Анатолия Тарасова сделали из «номера 17» легенду мирового хоккея.- -Качество видео: HDRip
Контейнер: AVI
Видео кодек: XviD
Аудио кодек: AC3
Видео: 720x304, 24,000 fps, 1100 kbps avg, 0.209 bit/pixel
Аудио: 48 kHz, AC3 Dolby Digital, 6 ch, ~448.00 kbps avg
Cубтитры: отсутствуют-
Общее
Полное имя : C:\Users\Ромик\Pictures\Посмотреть\Легенда №17\Legenda.N17.2013.O.HDRip.1.46.GB.avi
Формат : AVI
Формат/Информация : Audio Video Interleave
Размер файла : 1,46 Гбайт
Продолжительность : 2 ч. 13 м.
Общий поток : 1557 Кбит/сек
Программа кодирования : VirtualDubMod 1.5.10.3 | www.virtualdub-fr.org || (build 2550/release)
Библиотека кодирования : VirtualDubMod build 2550/release
Видео
Идентификатор : 0
Формат : MPEG-4 Visual
Профиль формата : Advanced [email protected]
Параметр BVOP формата : 1
Параметр QPel формата : Нет
Параметр GMC формата : Без точки перехода
Параметр матрицы формата : Выборочная
Идентификатор кодека : XVID
Идентификатор кодека/Подсказка : XviD
Продолжительность : 2 ч. 13 м.
Битрейт : 1100 Кбит/сек
Ширина : 720 пикселей
Высота : 304 пикселя
Соотношение сторон : 2,35:1
Частота кадров : 24,000 кадра/сек
Цветовое пространство : YUV
Субдискретизация насыщенности : 4:2:0
Битовая глубина : 8 бит
Тип развёртки : Прогрессивная
Метод сжатия : С потерями
Бит/(Пиксели*Кадры) : 0.209
Размер потока : 1,03 Гбайт (71%)
Библиотека кодирования : XviD 1.2.1 (UTC 2008-12-04)
Аудио
Идентификатор : 1
Формат : AC-3
Формат/Информация : Audio Coding 3
Расширение режима : CM (complete main)
Параметр Endianness формата : Big
Идентификатор кодека : 2000
Продолжительность : 2 ч. 13 м.
Вид битрейта : Постоянный
Битрейт : 448 Кбит/сек
Каналы : 6 каналов
Расположение каналов : Front: L C R, Side: L R, LFE
Частота : 48,0 КГц
Битовая глубина : 16 бит
Метод сжатия : С потерями
Размер потока : 429 Мбайт (29%)
Выравнивание : Разделение по промежуткам
Продолжительность промежутка : 42 мс. (1,00 видеокадр)
Время предзагрузки промежутка : 500 мс.
-
-
Download / Скачать

Хотите скачать бесплатно? Зарегистрируйтесь на сайте (ссылка на регистрацию). Pirat.ca - самый быстрый торрент трекер в рунете!

Как скачивать  ·   Что такое торрент  ·   Рейтинг и ограничения

infiniti-r

Корсар

Пост 24-Май-2013 23:39 (спустя 45 минут)

[Q] 

Буду первым!!!
[Профиль]  [ЛС] 

SCORPION.

Морской Волк

Пост 25-Май-2013 00:09 (спустя 30 минут)

[Q] 

[Профиль]  [ЛС] 

jocose

Морской Волк

Пост 25-Май-2013 02:09 (спустя 1 час 59 минут)

[Q] 

ура!!! спасибо))))
[Профиль]  [ЛС] 

Stefanu4

Лоцман

Пост 25-Май-2013 02:39 (спустя 29 минут)

[Q] 

[Профиль]  [ЛС] 

dimonpa

Гроза морей

Пост 25-Май-2013 08:07 (спустя 5 часов)

[Q] 

[Профиль]  [ЛС] 

TheSwan

Корсар

Пост 25-Май-2013 15:57 (спустя 7 часов)

[Q] 

[Профиль]  [ЛС] 

vodoleii

Шкипер

Пост 25-Май-2013 16:16 (спустя 18 минут)

[Q] 

О, наш бессмертный хоккей!
[Профиль]  [ЛС] 

DmMur

Шкипер

Пост 25-Май-2013 17:11 (спустя 55 минут)

[Q] 

[Профиль]  [ЛС] 

romansl

Шкипер

Пост 26-Май-2013 12:06 (спустя 18 часов)

[Q] 

Нормальный фильм, смотреть однозначно стоит!
[Профиль]  [ЛС] 

Yrets

Флибустьер

159

Пост 26-Май-2013 12:42 (спустя 36 минут)

[Q] 

ООООО!!! Давно ждал!!!! Спасибо, бочка в трюме.
[Профиль]  [ЛС] 

sanches997

Морской Волк

Пост 26-Май-2013 14:06 (спустя 1 час 23 минуты)

[Q] 

[Профиль]  [ЛС] 

Amon

Корсар

Пост 26-Май-2013 14:43 (спустя 37 минут)

[Q] 

[Профиль]  [ЛС] 

jesus-w

Корсар

Пост 26-Май-2013 14:51 (спустя 7 минут)

[Q] 

[Профиль]  [ЛС] 

AlexM

Корсар

Пост 26-Май-2013 19:46 (спустя 4 часа)

[Q] 

[Профиль]  [ЛС] 

svetla05

Шкипер

Пост 26-Май-2013 20:36 (спустя 49 минут)

[Q] 

[Профиль]  [ЛС] 

shtulzzz

Корсар

Пост 26-Май-2013 21:44 (спустя 1 час 8 минут)

[Q] 

[Профиль]  [ЛС] 

ddmdd

Матрос

Пост 26-Май-2013 22:04 (спустя 19 минут)

[Q] 

[Профиль]  [ЛС] 

aleks77l

Морской Волк

Пост 26-Май-2013 22:11 (спустя 7 минут)

[Q] 

[Профиль]  [ЛС] 

korvan

Штурман

Пост 26-Май-2013 22:12 (спустя 1 минута)

[Q] 

[Профиль]  [ЛС] 

sorrowpony

Штурман

Пост 26-Май-2013 22:29 (спустя 17 минут)

[Q] 

Фильм отличный ! ПО чаще бы думали, что снимать и как. В нашей Великой истории есть масса подобных примеров.
Большое спасибо за фильм, который в очередной раз заставил гордиться, тем, что я родился в СССР и жалеть того, что не застал 60-70 годы.
[Профиль]  [ЛС] 

mjurs

Корсар

Пост 27-Май-2013 00:02 (спустя 1 час 32 минуты)

[Q] 

[Профиль]  [ЛС] 

kokos2112

Морской Волк

Пост 27-Май-2013 00:23 (спустя 21 минута)

[Q] 

[Профиль]  [ЛС] 

Jek@

Легенда

Пост 27-Май-2013 05:59 (спустя 5 часов)

[Q] 

[Профиль]  [ЛС] 

alex denver71

Флибустьер

Пост 27-Май-2013 08:57 (спустя 2 часа 57 минут)

[Q] 

bi bi bi ay ay ay ad
[Профиль]  [ЛС] 

gnom_ik

Корсар

Пост 27-Май-2013 11:24 (спустя 2 часа 27 минут)

[Q] 

[Профиль]  [ЛС] 

EvilPuzatik

Корсар

Пост 27-Май-2013 16:45 (спустя 5 часов)

[Q] 


_________________
[Профиль]  [ЛС] 

skula

Шкипер

Пост 27-Май-2013 21:06 (спустя 4 часа)

[Q] 

не хочу ни кого обидеть, но лицензия какая то не качественная, судя по скринам
[Профиль]  [ЛС] 

skula

Шкипер

Пост 27-Май-2013 21:06 (спустя 0 секунд)

[Q] 

не хочу ни кого обидеть, но лицензия какая то не качественная, судя по скринам
[Профиль]  [ЛС] 

odyssey123

Флибустьер

Пост 31-Май-2013 19:31 (спустя 3 дня)

[Q] 

[Профиль]  [ЛС] 
Показать сообщения:    
Ответить на тему

Текущее время: Сегодня 23:47

Часовой пояс: GMT + 4



Вы не можете начинать темы
Вы не можете отвечать на сообщения
Вы не можете редактировать свои сообщения
Вы не можете удалять свои сообщения
Вы не можете голосовать в опросах
Вы не можете прикреплять файлы к сообщениям
Вы не можете скачивать файлы

▼ Вниз