ML
     
  Уважаемый Гость!
Вы можете поддержать проект и зарегистрироваться у наших партнеров - онлайн-стратегия MyLands. При регистрации в игре Вы получите код, который сможете активировать после регистрации на pirat.ca и получить 1000 дублонов.

Ваш код:
bb0cb47ee786a33f751af5a500dd264c9487bfac
 
     

Разговор (Сергей Комаров) [2012 г., драма, HDRip-AVC]

Ответить на тему
 
Автор
Сообщение

Пост 25-Май-2013 08:28

[Q] 

aleksejj

Корсар

-Разговор-- Производство: Россия
Режиссер: Сергей Комаров
Жанр: драма
Год выпуска: 2012 г.
Продолжительность: 01:17:11
Озвучивание: Оригинальное [Лицензия]
Российская премьера: 11 апреля 2013, «Каропрокат»
Дата выхода DVD: 27 мая 2013, «Новый Диск»
Дата выхода Blu-Ray: 27 мая 2013, «Новый Диск»

В ролях: Гоша Куценко, Анна Канарис, Владимир Горюшин, Игорь Кистол, Александр Сирин, Георгий Тополага-Описание: Борис приходит в себя в тюрьме. Оказывается, что три дня назад он сбил человека. Но вспомнить аварию и обстоятельства, предшествующие ей, Борису не удается даже на допросе. Как все произошло? Кого он сбил? Головоломка начинает складываться, когда на свидание к Борису приходит жена. В разговоре с ней он узнает, что наказан за преступление, которое совершил не сейчас. А наказание это намного страшнее тюремного заключения.-КиноПоиск
Качество видео: HDRip
Контейнер: MKV
Видео кодек: H.264
Аудио кодек: AC3
Видео: 1056 x 448 (2,35:1), 24,000 fps, AVC (х264) [email protected], ~ 2153 Kbps, 0.190 bit/pixel
Аудио: 48 kHz, AC3 Dolby Digital, 3/2 (L,C,R,l,r) + LFE ch, ~384.00 kbps avg
Cубтитры: отсутствуют
Общее
Уникальный идентификатор : 181501953170280805514873072519709553436 (0x888C01313C93D1EFB749A5044459731C)
Полное имя : D:\torrents\razgovor.[pirat.ca].mkv
Формат : Matroska
Версия формата : Version 2
Размер файла : 1,37 Гбайт
Продолжительность : 1 ч. 17 м.
Режим общего битрейта : Переменный
Общий поток : 2539 Кбит/сек
Дата кодирования : UTC 2013-05-25 02:45:00
Программа кодирования : mkvmerge v6.2.0 ('Promised Land') built on Apr 28 2013 12:22:01
Библиотека кодирования : libebml v1.3.0 + libmatroska v1.4.0
Видео
Идентификатор : 1
Формат : AVC
Формат/Информация : Advanced Video Codec
Профиль формата : [email protected]
Параметр CABAC формата : Да
Параметр ReFrames формата : 3 кадра
Идентификатор кодека : V_MPEG4/ISO/AVC
Продолжительность : 1 ч. 17 м.
Вид битрейта : Переменный
Битрейт : 2153 Кбит/сек
Максимальный битрейт : 40,0 Мбит/сек
Ширина : 1056 пикселей
Высота : 448 пикселей
Соотношение сторон : 2,35:1
Режим частоты кадров : Постоянный
Частота кадров : 24,000 кадра/сек
Цветовое пространство : YUV
Субдискретизация насыщенности : 4:2:0
Битовая глубина : 8 бит
Тип развёртки : Прогрессивная
Бит/(Пиксели*Кадры) : 0.190
Размер потока : 1,13 Гбайт (83%)
Библиотека кодирования : x264 core 133 r2334 a3ac64b
Настройки программы : cabac=1 / ref=3 / deblock=1:1:1 / analyse=0x3:0x133 / me=umh / subme=7 / psy=1 / psy_rd=1.00:0.01 / mixed_ref=1 / me_range=24 / chroma_me=1 / trellis=1 / 8x8dct=1 / cqm=0 / deadzone=21,11 / fast_pskip=1 / chroma_qp_offset=-3 / threads=3 / lookahead_threads=1 / sliced_threads=0 / slices=4 / nr=0 / decimate=1 / interlaced=0 / bluray_compat=1 / constrained_intra=0 / bframes=3 / b_pyramid=1 / b_adapt=1 / b_bias=0 / direct=1 / weightb=1 / open_gop=1 / weightp=1 / keyint=24 / keyint_min=1 / scenecut=40 / intra_refresh=0 / rc_lookahead=24 / rc=2pass / mbtree=1 / bitrate=2153 / ratetol=1.0 / qcomp=0.60 / qpmin=0 / qpmax=69 / qpstep=4 / cplxblur=20.0 / qblur=0.5 / vbv_maxrate=40000 / vbv_bufsize=30000 / nal_hrd=vbr / ip_ratio=1.40 / aq=1:1.00
Default : Да
Forced : Нет
Аудио
Идентификатор : 2
Формат : AC-3
Формат/Информация : Audio Coding 3
Расширение режима : CM (complete main)
Параметр Endianness формата : Big
Идентификатор кодека : A_AC3
Продолжительность : 1 ч. 17 м.
Вид битрейта : Постоянный
Битрейт : 384 Кбит/сек
Каналы : 6 каналов
Расположение каналов : Front: L C R, Side: L R, LFE
Частота : 48,0 КГц
Битовая глубина : 16 бит
Метод сжатия : С потерями
Размер потока : 212 Мбайт (15%)
Default : Да
Forced : Нет
Download / Скачать

Хотите скачать бесплатно? Зарегистрируйтесь на сайте (ссылка на регистрацию). Pirat.ca - самый быстрый торрент трекер в рунете!

Как скачивать  ·   Что такое торрент  ·   Рейтинг и ограничения

aleksejj ®

Корсар

5324

Пост 25-Май-2013 09:27 (спустя 59 минут)

[Q] 

СЭМПЛ ФАЙЛ

_________________
[Профиль]  [ЛС] 

Пост 25-Май-2013 16:45 (спустя 7 часов)

Топик был перенесен из форума Наше кино (Трюм) в форум Новинки (HD|DVD|BD| TV|SAT|PDTV| - Rips)

ara1205
 

lordval77

Штурман

Пост 25-Май-2013 19:01 (спустя 9 часов)

[Q] 

с Куценко уже че-то страшновато качать фильмы чтоб не сплохело
[Профиль]  [ЛС] 

_Marks_

Флибустьер

Пост 25-Май-2013 20:30 (спустя 1 час 29 минут)

[Q] 

ща глянем...
[Профиль]  [ЛС] 

omsky.yastreb

Лоцман

Пост 30-Май-2013 03:45 (спустя 4 дня)

[Q] 

Хорошее кино, стоит посмотреть, есть над чем подумать. 100% рассчитано не на любителей экшена
[Профиль]  [ЛС] 

Kibersanya

Корсар

Пост 31-Май-2013 10:32 (спустя 1 день 6 часов)

[Q] 

[Профиль]  [ЛС] 

Alexander1985

Шкипер

Пост 09-Июн-2013 06:08 (спустя 8 дней)

[Q] 

мне фильм понравился, я даже не заметил, как время прошло, фильм для просмотра тем, у кого есть мозг, школоте его не понять, не понять сам смысл фильма
[Профиль]  [ЛС] 

Дмитров

Морской Волк

Пост 13-Июн-2013 20:11 (спустя 4 дня)

[Q] 

Включаем интеллект и только после этого смотрим фильм.
[Профиль]  [ЛС] 

anton78

Морской Волк

Пост 15-Июн-2013 23:38 (спустя 2 дня 3 часа)

[Q] 

СПС всё включил, качаю фильм!!!!! бочка рома в трюме!
[Профиль]  [ЛС] 

anton78

Морской Волк

Пост 16-Июн-2013 12:37 (спустя 12 часов)

[Q] 

ну не, не айс, на 3 по пяти бальной шкале...
[Профиль]  [ЛС] 

zmaksimz

Корсар

Пост 16-Июн-2013 14:36 (спустя 1 час 58 минут)

[Q] 

мне фильм очень понравился
[Профиль]  [ЛС] 

viji

Корсар

Пост 22-Июн-2013 12:24 (спустя 5 дней)

[Q] 

Что-то вроде в фильме есть, но все равно ерунда.
[Профиль]  [ЛС] 

vandren

Корсар

Пост 22-Июн-2013 12:42 (спустя 17 минут)

[Q] 

Сейчас посмотрим. А с переводом есть? bm

_________________
И, словно мухи тут и там, ходЮт слухи по домам...
[Профиль]  [ЛС] 

Пост 27-Июн-2013 10:17 (спустя 4 дня)

Топик был перенесен из форума Новинки (HD|DVD|BD| TV|SAT|PDTV| - Rips) в форум Российские фильмы

ara1205
 

Vorontsova.Olha

Морской Волк

Пост 06-Июл-2013 16:16 (спустя 14 дней)

[Q] 


_________________
[Профиль]  [ЛС] 

kalmyk73

Морской Волк

Пост 16-Июл-2013 16:16 (спустя 10 дней)

[Q] 

Психологическая драма

_________________
Я люблю тебя жизнь ну а ты меня СНОВА И СНОВА.
[Профиль]  [ЛС] 

fabur1990

Штурман

Пост 27-Июл-2013 21:33 (спустя 11 дней)

[Q] 

Фильм редкое г...
[Профиль]  [ЛС] 
Показать сообщения:    
Ответить на тему

Текущее время: Сегодня 02:19

Часовой пояс: GMT + 4



Вы не можете начинать темы
Вы не можете отвечать на сообщения
Вы не можете редактировать свои сообщения
Вы не можете удалять свои сообщения
Вы не можете голосовать в опросах
Вы не можете прикреплять файлы к сообщениям
Вы не можете скачивать файлы

▼ Вниз