ML
     
  Уважаемый Гость!
Вы можете поддержать проект и зарегистрироваться у наших партнеров - онлайн-стратегия MyLands. При регистрации в игре Вы получите код, который сможете активировать после регистрации на pirat.ca и получить 1000 дублонов.

Ваш код:
2fd4e750dd89cae3a36ea360f2b345ccfeb562d3
 
     

Разжалованный (Владимир Тумаев) [2009 г., Военный, DVDRip]

Ответить на тему
 
Автор
Сообщение

Пост 25-Май-2013 09:36

[Q] 

vadim0525

Корсар

-Разжалованный-- Производство: Россия
Режиссер: Владимир Тумаев
Жанр: Военный
Год выпуска: 2009 г.
Продолжительность: 01:32:15
В ролях: А.Михайлов, Н.Тезин, Ф.Бажин, О.Лапшина, М.Куделинская, А.Межулис, Д.Карасев, М.Солодко-Описание: Главный герой – незаметный человек в звании рядового, бывший комбриг, приговоренный к расстрелу. Волей случая он спасается и под чужим именем продолжает воевать. Два бойца комендантской роты получают приказ доставить в военный трибунал разжалованного лейтенанта, обвиненного в трусости. По пути следования группа наталкивается на тяжелораненых, оставленных в лесу с хирургом Софьей Борисовной. Один из раненых узнаёт в бойце-конвоире бывшего комбрига, скрывающегося под чужим именем. Но разбираться, кто есть кто, некогда – появляются фашисты, и надо спасать беспомощных людей. Бывший комбриг берет командование на себя...-Качество видео: DVDRip
Контейнер: AVI
Видео кодек: MPEG-4 Visual
Аудио кодек: AC-3
Видео: DivX; 704x400 (1.76:1); 25.000 fps; 1731 kbps; 0.246 bits/pixel
Аудио: AC3; 48000 Hz; 384 kbps; 6 ch
Cубтитры: отсутствуют
Общее
Полное имя : E:\ФІЛЬМИ\Razzhalovannij [pirat.ca].avi
Формат : AVI
Формат/Информация : Audio Video Interleave
Размер файла : 1,37 Гбайт
Продолжительность : 1 ч. 32 м.
Общий поток : 2122 Кбит/сек
Программа кодирования : VirtualDubMod 1.5.10.2 (build 2540/release)
Библиотека кодирования : VirtualDubMod build 2540/release
Видео
Идентификатор : 0
Формат : MPEG-4 Visual
Параметр BVOP формата : 1
Параметр QPel формата : Нет
Параметр GMC формата : Без точки перехода
Параметр матрицы формата : Default (H.263)
Режим смешивания : Сжатый битовый поток
Идентификатор кодека : DX50
Идентификатор кодека/Подсказка : DivX 5
Продолжительность : 1 ч. 32 м.
Битрейт : 1728 Кбит/сек
Ширина : 704 пикселя
Высота : 400 пикселей
Соотношение сторон : 16:9
Частота кадров : 25,000 кадров/сек
Цветовое пространство : YUV
Субдискретизация насыщенности : 4:2:0
Битовая глубина : 8 бит
Тип развёртки : Прогрессивная
Метод сжатия : С потерями
Бит/(Пиксели*Кадры) : 0.245
Размер потока : 1,11 Гбайт (81%)
Библиотека кодирования : DivX 6.8.5 (UTC 2009-08-20)
Аудио
Идентификатор : 1
Формат : AC-3
Формат/Информация : Audio Coding 3
Расширение режима : CM (complete main)
Параметр Endianness формата : Big
Идентификатор кодека : 2000
Продолжительность : 1 ч. 32 м.
Вид битрейта : Постоянный
Битрейт : 384 Кбит/сек
Каналы : 6 каналов
Расположение каналов : Front: L C R, Side: L R, LFE
Частота : 48,0 КГц
Битовая глубина : 16 бит
Метод сжатия : С потерями
Размер потока : 253 Мбайт (18%)
Выравнивание : Разделение по промежуткам
Продолжительность промежутка : 40 мс. (1,00 видеокадр)
Время предзагрузки промежутка : 500 мс.
Download / Скачать

Хотите скачать бесплатно? Зарегистрируйтесь на сайте (ссылка на регистрацию). Pirat.ca - самый быстрый торрент трекер в рунете!

Как скачивать  ·   Что такое торрент  ·   Рейтинг и ограничения

Пост 25-Май-2013 17:57 (спустя 8 часов)

Топик был перенесен из форума Наше кино (Трюм) в форум Российские фильмы

ara1205
 

Принц Датский

Корсар

Пост 26-Май-2013 09:41 (спустя 1 день)

[Q] 

У нас,под Ржевом,снимался.

_________________
[Профиль]  [ЛС] 

Vorontsova.Olha

Морской Волк

Пост 26-Май-2013 10:27 (спустя 45 минут)

[Q] 


_________________
[Профиль]  [ЛС] 

ivan.tratil 67

Корсар

Пост 07-Июн-2013 20:46 (спустя 12 дней)

[Q] 

[Профиль]  [ЛС] 

vlad732007

Корсар

Пост 31-Июл-2013 19:27 (спустя 1 месяц 23 дня)

[Q] 

нормальный серьезный фильм, немного грустный и немного скучноват по началу, посмотрел не жалея, раздающему Спасибо!!!
[Профиль]  [ЛС] 

urlas66

Морской Волк

Пост 28-Авг-2013 08:24 (спустя 27 дней)

[Q] 

скучноват все хуже и хуже фильмы про войну
[Профиль]  [ЛС] 

viktor41

Шкипер

Пост 13-Окт-2013 19:53 (спустя 1 месяц 16 дней)

[Q] 

Спасибо ! Супер!
[Профиль]  [ЛС] 

Datchanin

Корсар

36

Пост 17-Ноя-2013 03:53 (спустя 1 месяц 3 дня)

[Q] 

Все скачали? Или подержать ещё раздачу??? Я просто уеду скоро на неделю.

_________________
[Профиль]  [ЛС] 
Показать сообщения:    
Ответить на тему

Текущее время: Сегодня 14:13

Часовой пояс: GMT + 4



Вы не можете начинать темы
Вы не можете отвечать на сообщения
Вы не можете редактировать свои сообщения
Вы не можете удалять свои сообщения
Вы не можете голосовать в опросах
Вы не можете прикреплять файлы к сообщениям
Вы не можете скачивать файлы

▼ Вниз