ML
     
  Уважаемый Гость!
Вы можете поддержать проект и зарегистрироваться у наших партнеров - онлайн-стратегия MyLands. При регистрации в игре Вы получите код, который сможете активировать после регистрации на pirat.ca и получить 1000 дублонов.

Ваш код:
bc31d8aef74c92e19ad67e34a8fa63c3b9b812fb
 
     

Колье для снежной бабы (Александр Даруга) [2007 г., Мелодрама, DVDRip ]

Ответить на тему
 
Автор
Сообщение

Пост 28-Май-2013 02:23

[Q] 

Жека-Geka

Лоцман

-Колье для снежной бабы--
Оригинальное название: Колье для снежной бабы
Год выпуска: 2007
Выпущено: Украина
Жанр: Мелодрама
Продолжительность: 01:27:14

Режиссер: Александр Даруга
В ролях: Ольга Будина
Иван Оганесян
Олег Фомин
Дмитрий Лаленков
Ирма Витовская
Екатерина Кистень
Маша Ефросинина
Александр Бондаренко
Людмила Загорская
Дарья Трегубова-Описание: На горнолыжном курорте в Карпатах встречаются двое молодых людей: Кирилл - сторонник свободных отношений, напрочь не верящий в любовь, и Катя, которую предал любимый человек, и теперь она отчаянно надеется устроить личную жизнь...- -Качество видео: DVDRip
Контейнер: AVI
Видео: XviD, 2109 Кбит/с, 720x416
Аудио: MP3, 2 ch, 128 Кбит/с
Cубтитры: отсутствуют
Код:
Общее
Полное имя                               : E:\Фильмы\Kolie.Dly.Snejnoi.Babj.2006.XviD.DVDRip.Kinozal.TV.avi
Формат                                   : AVI
Формат/Информация                        : Audio Video Interleave
Размер файла                             : 1,37 Гбайт
Продолжительность                        : 1 ч. 27 м.
Общий поток                              : 2244 Кбит/сек
Программа кодирования                    : VirtualDubMod 1.5.4.1 (build 2178/release)
Библиотека кодирования                   : VirtualDubMod build 2178/release
Видео
Идентификатор                            : 0
Формат                                   : MPEG-4 Visual
Профиль формата                          : Advanced [email protected]
Параметр BVOP формата                    : 1
Параметр QPel формата                    : Нет
Параметр GMC формата                     : Без точки перехода
Параметр матрицы формата                 : Выборочная
Идентификатор кодека                     : XVID
Идентификатор кодека/Подсказка           : XviD
Продолжительность                        : 1 ч. 27 м.
Битрейт                                  : 2109 Кбит/сек
Ширина                                   : 720 пикселей
Высота                                   : 416 пикселей
Соотношение сторон                       : 1,731
Частота кадров                           : 25,000 кадров/сек
Цветовое пространство                    : YUV
Субдискретизация насыщенности            : 4:2:0
Битовая глубина                          : 8 бит
Тип развёртки                            : Прогрессивная
Метод сжатия                             : С потерями
Бит/(Пиксели*Кадры)                      : 0.282
Размер потока                            : 1,28 Гбайт (94%)
Библиотека кодирования                   : XviD 1.1.2 (UTC 2006-11-01)
Аудио
Идентификатор                            : 1
Формат                                   : MPEG Audio
Версия формата                           : Version 1
Профиль формата                          : Layer 3
Режим                                    : Joint stereo
Расширение режима                        : MS Stereo
Идентификатор кодека                     : 55
Идентификатор кодека/Подсказка           : MP3
Продолжительность                        : 1 ч. 27 м.
Вид битрейта                             : Постоянный
Битрейт                                  : 128 Кбит/сек
Каналы                                   : 2 канала
Частота                                  : 48,0 КГц
Метод сжатия                             : С потерями
Размер потока                            : 79,9 Мбайт (6%)
Выравнивание                             : Соединение по промежуткам
Продолжительность промежутка             : 80  мс. (2,00 видеокадра)
Время предзагрузки промежутка            : 504  мс.
Библиотека кодирования                   : LAME3.97
Download / Скачать

Хотите скачать бесплатно? Зарегистрируйтесь на сайте (ссылка на регистрацию). Pirat.ca - самый быстрый торрент трекер в рунете!

Как скачивать  ·   Что такое торрент  ·   Рейтинг и ограничения

Пост 28-Май-2013 17:46 (спустя 15 часов)

Топик был перенесен из форума Наше кино (Трюм) в форум Российские фильмы

ara1205
 

cergo

Гроза морей

20061

Пост 28-Май-2013 18:24 (спустя 16 часов)

[Q] 

[Профиль]  [ЛС] 

Жека-Geka ®

Лоцман

29

Пост 29-Май-2013 18:49 (спустя 1 день)

[Q] 

cergo, спасибо az
[Профиль]  [ЛС] 

viktor41

Шкипер

Пост 15-Окт-2013 18:51 (спустя 4 месяца 17 дней)

[Q] 

Спасибо ! Супер!
[Профиль]  [ЛС] 
Показать сообщения:    
Ответить на тему

Текущее время: Сегодня 12:02

Часовой пояс: GMT + 4



Вы не можете начинать темы
Вы не можете отвечать на сообщения
Вы не можете редактировать свои сообщения
Вы не можете удалять свои сообщения
Вы не можете голосовать в опросах
Вы не можете прикреплять файлы к сообщениям
Вы не можете скачивать файлы

▼ Вниз