ML
     
  Уважаемый Гость!
Вы можете поддержать проект и зарегистрироваться у наших партнеров - онлайн-стратегия MyLands. При регистрации в игре Вы получите код, который сможете активировать после регистрации на pirat.ca и получить 1000 дублонов.

Ваш код:
4399ab8611ee7f8a22949d2ee7634160dd2db7e0
 
     

Честь (Игорь Москвитин) [2012 г., Криминал, боевик, SATRip]

Ответить на тему
 
Автор
Сообщение

Пост 28-Май-2013 19:10

[Q] 

cergo

Гроза морей

-Честь-- Производство: Россия, Триикс Медиа
Режиссер: Игорь Москвитин
Жанр: Криминал, боевик
Год выпуска: 2012 г.
Продолжительность: 01:28:48
Российская премьера: 9 марта 2012
В ролях: Эльдар Лебедев, Алексей Девотченко, Ирина Баринова, Дмитрий Александров (III)-Описание: Рустаму около 40-а лет. Он с семьёй живет в Санкт-Петербурге в съёмной квартире, занимается частным извозом. Однажды на Рустама нападают бандиты. Они избивают его, отнимают всю дневную выручку. Он попадает в больницу, куда к нему приходит опер Максим Иванов. Он узнает у Рустама подробности происшедшего и уходит. Иванов не собирается никого искать, у него много других важных дел. Что оперу Иванову проблемы какого-то кавказца? Рустаму ничего не остаётся, кроме как смириться с таким положением дел. Жизнь движется дальше: Рустам «бомбит», Иванов «работает» в полиции. Но однажды Иванов перешёл дорогу серьёзным бандитам, за что жестоко поплатился: он приходит в себя возле мертвой женщины, в руке табельный пистолет, из которого ее убили… Коллеги и друзья от Иванова отворачиваются. Ведь он уже одной ногой за решеткой. Иванов скрывается от своих бывших коллег, от бандитов, получает пулю.Раненого Иванова подбирает…Рустам! Он сажает раненого Иванова в свою машину. И увозит к себе домой. Там Иванов приходит в себя. Он поражен, что его спас какой-то кавказец, какой-то бомбила. Ещё больше его поразила история Рустама – он тоже был милиционером и тоже перешёл дорогу не тем людям. В это же время бандиты и милиция идут по следу Иванова и выходят на Рустама. И теперь он вынужден спасать себя и свою семью..-КиноПоиск
Качество видео: SATRip
Контейнер: AVI
Видео кодек: XviD
Аудио кодек: MP3
Видео: 704x384 (1.83:1), 25 fps, XviD MPEG-4 ~2064 kbps avg, 0.30 bit/pixel
Аудио: 48 kHz, MPEG Layer 3, 2 ch, ~128.00 kbps avg
Cубтитры: отсутствуют
Общее
Полное имя : D:\Chest.2012.XviD.SATRip.avi
Формат : AVI
Формат/Информация : Audio Video Interleave
Размер файла : 1,37 Гбайт
Продолжительность : 1 ч. 28 м.
Общий поток : 2202 Кбит/сек
Название фильма : rip by KimVlad
Программа кодирования : VirtualDubMod 1.5.10.3 (build 2550/release)
Библиотека кодирования : VirtualDubMod build 2550/release
Видео
Идентификатор : 0
Формат : MPEG-4 Visual
Профиль формата : Advanced [email protected]
Параметр BVOP формата : 2
Параметр QPel формата : Нет
Параметр GMC формата : Без точки перехода
Параметр матрицы формата : Выборочная
Режим смешивания : Сжатый битовый поток
Идентификатор кодека : XVID
Идентификатор кодека/Подсказка : XviD
Продолжительность : 1 ч. 28 м.
Битрейт : 2064 Кбит/сек
Ширина : 704 пикселя
Высота : 384 пикселя
Соотношение сторон : 1,85:1
Частота кадров : 25,000 кадров/сек
Цветовое пространство : YUV
Субдискретизация насыщенности : 4:2:0
Битовая глубина : 8 бит
Тип развёртки : Прогрессивная
Метод сжатия : С потерями
Бит/(Пиксели*Кадры) : 0.305
Размер потока : 1,28 Гбайт (94%)
Библиотека кодирования : XviD 62
Аудио
Идентификатор : 1
Формат : MPEG Audio
Версия формата : Version 1
Профиль формата : Layer 3
Режим : Joint stereo
Идентификатор кодека : 55
Идентификатор кодека/Подсказка : MP3
Продолжительность : 1 ч. 28 м.
Вид битрейта : Постоянный
Битрейт : 128 Кбит/сек
Каналы : 2 канала
Частота : 48,0 КГц
Метод сжатия : С потерями
Размер потока : 81,3 Мбайт (6%)
Выравнивание : Разделение по промежуткам
Продолжительность промежутка : 40 мс. (1,00 видеокадр)
Время предзагрузки промежутка : 500 мс.
Download / Скачать

Хотите скачать бесплатно? Зарегистрируйтесь на сайте (ссылка на регистрацию). Pirat.ca - самый быстрый торрент трекер в рунете!

Как скачивать  ·   Что такое торрент  ·   Рейтинг и ограничения

Пост 28-Май-2013 20:53 (спустя 1 час 42 минуты)

Топик был перенесен из форума Наше кино (Трюм) в форум Российские фильмы

ara1205
 

Саша1959

Флибустьер

Пост 29-Май-2013 00:42 (спустя 5 часов)

[Q] 

Спасибо
[Профиль]  [ЛС] 

cergo ®

Гроза морей

20032

Пост 29-Май-2013 01:03 (спустя 20 минут)

[Q] 

Саша1959, az
[Профиль]  [ЛС] 

viktor41

Шкипер

Пост 13-Окт-2013 19:52 (спустя 4 месяца 15 дней)

[Q] 

Спасибо ! ay
[Профиль]  [ЛС] 
Показать сообщения:    
Ответить на тему

Текущее время: Сегодня 10:47

Часовой пояс: GMT + 4



Вы не можете начинать темы
Вы не можете отвечать на сообщения
Вы не можете редактировать свои сообщения
Вы не можете удалять свои сообщения
Вы не можете голосовать в опросах
Вы не можете прикреплять файлы к сообщениям
Вы не можете скачивать файлы

▼ Вниз