ML
     
  Уважаемый Гость!
Вы можете поддержать проект и зарегистрироваться у наших партнеров - онлайн-стратегия MyLands. При регистрации в игре Вы получите код, который сможете активировать после регистрации на pirat.ca и получить 1000 дублонов.

Ваш код:
93dbf9fbdfa06c41d3b5a2c3921149ba36168c41
 
     

Красотка (Дмитрий Петрунь) [2013 г., мелодрама, HDTVRip]

Ответить на тему
 
Автор
Сообщение

Пост 29-Май-2013 08:44

[Q] 

ara1205

-Красотка-- Производство: Россия
Год выпуска: 2013 г.
Жанр: мелодрама
Продолжительность: 01:30:00
Российская премьера: 26 мая 2013
Перевод: Не требуется-Режиссер: Дмитрий Петрунь-В ролях: Илья Носков, Анна Старшенбаум, Сергей Комаров, Наталия Антонова, Игорь Ясулович, Роман Мадянов, Ричард Бондарев, Сергей Серов, Ольга Хохлова, Ольга Штыркова, Ангелина Лакатош, Юрий Бондаренко, Юрий Гумиров, Юлия Ковалёва, Анастасия Логинова, Елена Блинникова, Наталья Унгард, Александр Федичкин, Михаил Инчин, Василий Бочкарёв, Леонид Трегуб, Александр Сибирцев, Алексей Белоус, Николай Аверюшкин, Владимир Кебин, Кирилл Мелехов, Станислав Герасимов, Даниил Семченков, Павел Чернявский-Описание: Кирилл, молодой успешный предприниматель, приглашен на важный деловой ужин, открывающий новые перспективы для его бизнеса. Однако есть одно непременное условие — он должен привести свою невесту, с которой до сих пор никого не познакомил. Как назло, за день до ужина влюбленные ссорятся…
К счастью, благосклонная судьба подкидывает выход из положения: Кирилл случайно знакомится с красивой и острой на язык Лизой, которую вполне можно выдать за невесту. Если бы герой знал, с кем связывается, он бы поостерегся впускать незнакомку в свою жизнь…- -Качество видео: HDTVRip
Контейнер: AVI
Видео кодек: XviD
Аудио кодек: AC3
Видео: 720x400, 25 fps, 1970 kbps avg, 0.274 bit/pixel
Аудио: 48 kHz, AC3 Dolby Digital, 2/0 (L,R) ch, ~192.00 kbps avg
Cубтитры: отсутствуют-
Общее
Полное имя : G:\SeedAid\Krasotka.2012.HDTVRip.Files-x.avi
Формат : AVI
Формат/Информация : Audio Video Interleave
Размер файла : 1,37 Гбайт
Продолжительность : 1 ч. 30 м.
Общий поток : 2172 Кбит/сек
Программа кодирования : VirtualDubMod 1.5.10.3 | www.virtualdub-fr.org || (build 2550/release)
Библиотека кодирования : VirtualDubMod build 2550/release
Видео
Идентификатор : 0
Формат : MPEG-4 Visual
Профиль формата : Advanced [email protected]
Параметр BVOP формата : 1
Параметр QPel формата : Нет
Параметр GMC формата : Без точки перехода
Параметр матрицы формата : Default (H.263)
Идентификатор кодека : XVID
Идентификатор кодека/Подсказка : XviD
Продолжительность : 1 ч. 30 м.
Битрейт : 1970 Кбит/сек
Ширина : 720 пикселей
Высота : 400 пикселей
Соотношение сторон : 16:9
Частота кадров : 25,000 кадров/сек
Цветовое пространство : YUV
Субдискретизация насыщенности : 4:2:0
Битовая глубина : 8 бит
Тип развёртки : Прогрессивная
Метод сжатия : С потерями
Бит/(Пиксели*Кадры) : 0.274
Размер потока : 1,24 Гбайт (91%)
Библиотека кодирования : XviD 1.2.1 (UTC 2008-12-04)
Аудио
Идентификатор : 1
Формат : AC-3
Формат/Информация : Audio Coding 3
Расширение режима : CM (complete main)
Параметр Endianness формата : Big
Идентификатор кодека : 2000
Продолжительность : 1 ч. 30 м.
Вид битрейта : Постоянный
Битрейт : 192 Кбит/сек
Каналы : 2 канала
Расположение каналов : Front: L R
Частота : 48,0 КГц
Битовая глубина : 16 бит
Метод сжатия : С потерями
Размер потока : 124 Мбайт (9%)
Выравнивание : Разделение по промежуткам
Продолжительность промежутка : 40 мс. (1,00 видеокадр)
Время предзагрузки промежутка : 500 мс.
-
-
-
Download / Скачать

Хотите скачать бесплатно? Зарегистрируйтесь на сайте (ссылка на регистрацию). Pirat.ca - самый быстрый торрент трекер в рунете!

Как скачивать  ·   Что такое торрент  ·   Рейтинг и ограничения

infiniti-r

Корсар

Пост 29-Май-2013 11:22 (спустя 2 часа 37 минут)

[Q] 

[Профиль]  [ЛС] 

Kibersanya

Корсар

Пост 31-Май-2013 10:31 (спустя 1 день 23 часа)

[Q] 

[Профиль]  [ЛС] 

Zmutant

Морской Волк

1

Пост 02-Июн-2013 12:58 (спустя 2 дня 2 часа)

[Q] 

[Профиль]  [ЛС] 

SSB

Шкипер

Пост 02-Июн-2013 20:30 (спустя 7 часов)

[Q] 

[Профиль]  [ЛС] 

pawluha_007

Лоцман

Пост 02-Июн-2013 21:12 (спустя 41 минута)

[Q] 

а красотка где?
[Профиль]  [ЛС] 

vermin71

Штурман

Пост 03-Июн-2013 10:09 (спустя 12 часов)

[Q] 

[Профиль]  [ЛС] 

gnom_ik

Корсар

Пост 06-Июн-2013 08:17 (спустя 2 дня 22 часа)

[Q] 

[Профиль]  [ЛС] 

OleksBy

Корсар

Пост 06-Июн-2013 19:00 (спустя 10 часов)

[Q] 

[Профиль]  [ЛС] 

pe4enpo4ki

Шкипер

Пост 06-Июн-2013 22:25 (спустя 3 часа)

[Q] 

Красотка Дмитрий Петрунь )))
[Профиль]  [ЛС] 

Дмитров

Морской Волк

Пост 09-Июн-2013 23:25 (спустя 3 дня)

[Q] 

Нормальная мелодрама. Советую посмотреть.
[Профиль]  [ЛС] 

ara1205 ®

69737

Пост 27-Июн-2013 15:18 (спустя 17 дней)

[Q] 

379572Красотка Дмитрий Петрунь )))
Чё нравятся такие? bj
[Профиль]  [ЛС] 

alex denver71

Флибустьер

Пост 28-Июн-2013 07:39 (спустя 16 часов)

[Q] 

супруге с дочкой очень понравился фильм bi bi bi ay ay ay af
[Профиль]  [ЛС] 
Показать сообщения:    
Ответить на тему

Текущее время: Сегодня 20:21

Часовой пояс: GMT + 4



Вы не можете начинать темы
Вы не можете отвечать на сообщения
Вы не можете редактировать свои сообщения
Вы не можете удалять свои сообщения
Вы не можете голосовать в опросах
Вы не можете прикреплять файлы к сообщениям
Вы не можете скачивать файлы

▼ Вниз