ML
     
  Уважаемый Гость!
Вы можете поддержать проект и зарегистрироваться у наших партнеров - онлайн-стратегия MyLands. При регистрации в игре Вы получите код, который сможете активировать после регистрации на pirat.ca и получить 1000 дублонов.

Ваш код:
8b29d0f8cd61fe457e59e7df0aa1fab41a2b88b9
 
     

Шутки ангела (Евгений Аксёнов) [2013 г., боевик, комедия, SATRip]

Ответить на тему
 
Автор
Сообщение

Пост 09-Июн-2013 10:00

[Q] 

Resident

-Шутки ангела-- Производство: Россия
Режиссер: Евгений Аксёнов
Жанр: боевик, комедия
Год выпуска: 2013 г.
Продолжительность: 01:27:17
Российская премьера: 8 июня 2013
В ролях: Артур Ваха, Мария Бортник, Ростислав Бершауэр, Елена Купрашевич, Владимир Фоков, Татьяна Иванова, Алексей Федотов, Ольга Кирсанова-Миропольская, Геннадий Смирнов-Описание: Жил-был тиран и самодур бизнесмен Мухин. Так бы дальше и жил, мучая домочадцев и подчиненных, если бы… Если бы не началась за ним охота тайного убийцы, не было у него верного друга Пчелкина, надежного охранника Михалыча и маленькой дочки, которая подружилась с ангелом.-
Качество видео: SATRip
Контейнер: AVI
Видео кодек: DivX
Аудио кодек: MP3
Видео: DivX, 2050 kb/s, 704x400, 25.000 fps, 0.294 bit / pix
Аудио: 48kHz, MP3, 128 kbps(2ch)
Cубтитры: отсутствуют
General
Complete name : W:\Shutki.angela. P.SATRip.avi
Format : AVI
Format/Info : Audio Video Interleave
File size : 1.34 GiB
Duration : 1h 26mn
Overall bit rate : 2 210 Kbps
Writing application : transcode-1.1.5
Video
ID : 0
Format : MPEG-4 Visual
Format settings, BVOP : Yes
Format settings, QPel : No
Format settings, GMC : No warppoints
Format settings, Matrix : Default (H.263)
Codec ID : DX50
Codec ID/Hint : DivX 5
Duration : 1h 26mn
Bit rate : 2 069 Kbps
Width : 704 pixels
Height : 400 pixels
Display aspect ratio : 16:9
Frame rate : 25.000 fps
Color space : YUV
Chroma subsampling : 4:2:0
Bit depth : 8 bits
Scan type : Progressive
Bits/(Pixel*Frame) : 0.294
Stream size : 1.26 GiB (94%)
Writing library : Intel(R) MPEG-4 encoder based on Intel(R) IPP 6.1 build 137.20[6.1.137.763]
Audio
ID : 1
Format : MPEG Audio
Format version : Version 1
Format profile : Layer 3
Mode : Joint stereo
Codec ID : 55
Codec ID/Hint : MP3
Duration : 1h 26mn
Bit rate mode : Constant
Bit rate : 128 Kbps
Channel(s) : 2 channels
Sampling rate : 48.0 KHz
Stream size : 79.5 MiB (6%)
Alignment : Aligned on interleaves
Interleave, duration : 24 ms (0.60 video frame)
Interleave, preload duration : 48 ms
Writing library : LAME3.98.2
Download / Скачать

Хотите скачать бесплатно? Зарегистрируйтесь на сайте (ссылка на регистрацию). Pirat.ca - самый быстрый торрент трекер в рунете!

Как скачивать  ·   Что такое торрент  ·   Рейтинг и ограничения

Пост 09-Июн-2013 11:50 (спустя 1 час 49 минут)

Топик был перенесен из форума Наше кино (Трюм) в форум Новинки (HD|DVD|BD| TV|SAT|PDTV| - Rips)

ara1205
 

Recon105

Штурман

Пост 09-Июн-2013 13:57 (спустя 3 часа)

[Q] 

Аааааа, мои глаза!!! Что это за хрень????!!!!

_________________
Обиваю двери кожей заказчика...
[Профиль]  [ЛС] 

Джонни Эль

Лоцман

Пост 09-Июн-2013 14:56 (спустя 59 минут)

[Q] 

По ходу на постер бюджета не осталось )
[Профиль]  [ЛС] 

Саша1959

Флибустьер

Пост 09-Июн-2013 19:02 (спустя 4 часа)

[Q] 

и как фильм?
[Профиль]  [ЛС] 

luka444

Корсар

Пост 10-Июн-2013 21:45 (спустя 1 день 2 часа)

[Q] 

у меня давно возник вопрос: а сами релизеры смотрят то(фильм), что вылаживают?
[Профиль]  [ЛС] 

aleksuns

Юнга

Пост 13-Июн-2013 12:40 (спустя 2 дня 14 часов)

[Q] 

а-а-а-а-а-а-а-а-а-а-а-а !!!!!!!!!!!!!!!!!!!!!! А где видео-о-о-о-о-о-о-о-о-о-о-о!!!!!!!!!!!!!!!!!!!!!!!!!!Звук есть!
[Профиль]  [ЛС] 

Дмитров

Морской Волк

Пост 13-Июн-2013 20:07 (спустя 7 часов)

[Q] 

Если ЭТО боевик,то я Папа Римский!
[Профиль]  [ЛС] 

cerber73

Морской Волк

Пост 15-Июн-2013 08:22 (спустя 1 день 12 часов)

[Q] 

[Профиль]  [ЛС] 

AlexVl

Пост 04-Июл-2013 08:11 (спустя 18 дней)

[Q] 

очень прикольный фильм!
[Профиль]  [ЛС] 

vito12

Штурман

Пост 04-Июл-2013 11:32 (спустя 3 часа)

[Q] 

[Профиль]  [ЛС] 

Lifted

Флибустьер

220

Пост 11-Июл-2013 04:56 (спустя 6 дней)

[Q] 

заценим, сюжет заинтересовал
[Профиль]  [ЛС] 
Показать сообщения:    
Ответить на тему

Текущее время: Сегодня 21:22

Часовой пояс: GMT + 4



Вы не можете начинать темы
Вы не можете отвечать на сообщения
Вы не можете редактировать свои сообщения
Вы не можете удалять свои сообщения
Вы не можете голосовать в опросах
Вы не можете прикреплять файлы к сообщениям
Вы не можете скачивать файлы

▼ Вниз