ML
     
  Уважаемый Гость!
Вы можете поддержать проект и зарегистрироваться у наших партнеров - онлайн-стратегия MyLands. При регистрации в игре Вы получите код, который сможете активировать после регистрации на pirat.ca и получить 1000 дублонов.

Ваш код:
bc31d8aef74c92e19ad67e34a8fa63c3b9b812fb
 
     

Мой папа летчик (Александр Итыгилов) [2013 г., мелодрама, HDTVRip]

Ответить на тему
 
Автор
Сообщение

Пост 10-Июн-2013 09:38

[Q] 

aleksey99

- Мой папа летчик-- Производство: Россия, Украина / Кинокомпания УПС
Режиссер: Александр Итыгилов
Жанр: мелодрама
Год выпуска: 2013 г.
Продолжительность: 01:28:48-Российская премьера: 9 июня 2013
В ролях: Марина Коняшкина, Олег Харитонов, Иван Шмаков, Сергей Комаров (II), Елизавета Майская, Леся Самаева-Описание: Люся Ермакова работает официанткой в офицерской столовой летного гарнизона. Ее сын Валька мечтает, чтобы у него был папа, и обязательно летчик. Подполковник Ивченко требует от Люси благосклонности, ведь это он помог ей с работой, но женщина избегает его. Ей нравится майор Ловцов. Однажды Валька убегает на аэродром и пропадает. На поиски ребенка поднимают весь гарнизон…-
-Качество видео: HDTVRip
Контейнер: AVI
Видео кодек: XviD
Аудио кодек: AC3
Видео: 720x400 (1.80:1), 25 fps, XviD build 50 ~1981 kbps avg, 0.28 bit/pixel
Аудио: 48 kHz, AC3 Dolby Digital, 2/0 (L,R) ch, ~192 kbps
Cубтитры: отсутствуют
Общее
Полное имя : H:\Torrent2\Moy.papa.letchik.2013.XviD.HDTVRip [pirat.ca].avi
Формат : AVI
Формат/Информация : Audio Video Interleave
Размер файла : 1,37 Гбайт
Продолжительность : 1 ч. 29 м.
Общий поток : 2183 Кбит/сек
Программа кодирования : VirtualDubMod 1.5.10.3 | www.virtualdub-fr.org || (build 2550/release)
Библиотека кодирования : VirtualDubMod build 2550/release
Видео
Идентификатор : 0
Формат : MPEG-4 Visual
Профиль формата : Advanced [email protected]
Параметр BVOP формата : 1
Параметр QPel формата : Нет
Параметр GMC формата : Без точки перехода
Параметр матрицы формата : Default (H.263)
Идентификатор кодека : XVID
Идентификатор кодека/Подсказка : XviD
Продолжительность : 1 ч. 29 м.
Битрейт : 1982 Кбит/сек
Ширина : 720 пикселей
Высота : 400 пикселей
Соотношение сторон : 16:9
Частота кадров : 25,000 кадров/сек
Цветовое пространство : YUV
Субдискретизация насыщенности : 4:2:0
Битовая глубина : 8 бит
Тип развёртки : Прогрессивная
Метод сжатия : С потерями
Бит/(Пиксели*Кадры) : 0.275
Размер потока : 1,24 Гбайт (91%)
Библиотека кодирования : XviD 1.2.1 (UTC 2008-12-04)
Аудио
Идентификатор : 1
Формат : AC-3
Формат/Информация : Audio Coding 3
Расширение режима : CM (complete main)
Параметр Endianness формата : Big
Идентификатор кодека : 2000
Продолжительность : 1 ч. 29 м.
Вид битрейта : Постоянный
Битрейт : 192 Кбит/сек
Каналы : 2 канала
Расположение каналов : Front: L R
Частота : 48,0 КГц
Битовая глубина : 16 бит
Метод сжатия : С потерями
Размер потока : 123 Мбайт (9%)
Выравнивание : Разделение по промежуткам
Продолжительность промежутка : 40 мс. (1,00 видеокадр)
Время предзагрузки промежутка : 500 мс.
Download / Скачать

Хотите скачать бесплатно? Зарегистрируйтесь на сайте (ссылка на регистрацию). Pirat.ca - самый быстрый торрент трекер в рунете!

Как скачивать  ·   Что такое торрент  ·   Рейтинг и ограничения

Пост 10-Июн-2013 12:06 (спустя 2 часа 27 минут)

Топик был перенесен из форума Наше кино (Трюм) в форум Новинки (HD|DVD|BD| TV|SAT|PDTV| - Rips)

ara1205
 

alexey3312

Флибустьер

398

Пост 10-Июн-2013 23:11 (спустя 13 часов)

[Q] 

А какого, чуть не сказал хера, на обложке фильма F-18 нарисован??? Подпол Ивченко и майор Ловцов , натовcкие военнослужащие? Бедный Валька.....................

_________________
Металлисты - это самый развитой и передовой класс, и никто не может отрицать, что это и есть передовой отряд всего пролетариата. В.И. Ленин
[Профиль]  [ЛС] 

kuzhavaka

Морской Волк

Пост 11-Июн-2013 20:28 (спустя 21 час)

[Q] 

дык все теперь нате служим
[Профиль]  [ЛС] 

b3tmanann

Лоцман

Пост 11-Июн-2013 20:39 (спустя 11 минут)

[Q] 

Фильм то хоть нормальный, кто смотрел?
[Профиль]  [ЛС] 

Pahom91

Лоцман

Пост 12-Июн-2013 21:07 (спустя 1 день)

[Q] 

381513Фильм то хоть нормальный, кто смотрел?
Ни кто, кажись не рискует смотреть)
[Профиль]  [ЛС] 

Kenigsberg

Шкипер

Пост 15-Июн-2013 20:44 (спустя 2 дня 23 часа)

[Q] 

Я смотрел с женой. Ей понравилось, все поженились, дебилов наказали. Но летчик (который станет папой) как обосравшийся, язык в жопе. Там фильм с хорошим итогом мог закончится на 8 минуте. но так как главный герой язык из жопы не достает, тянучка тянулась 1,5 саса :)
[Профиль]  [ЛС] 

Zmutant

Морской Волк

1

Пост 17-Июн-2013 21:59 (спустя 2 дня 1 час)

[Q] 

Посмотреть можно, если нечего смотреть.
[Профиль]  [ЛС] 

UA4HQW

Флибустьер

2528

Пост 09-Апр-2014 17:54 (спустя 9 месяцев 21 день)

[Q] 

Хороший семейный фильм.
Автору респект!!!
[Профиль]  [ЛС] 
Показать сообщения:    
Ответить на тему

Текущее время: Сегодня 11:57

Часовой пояс: GMT + 4



Вы не можете начинать темы
Вы не можете отвечать на сообщения
Вы не можете редактировать свои сообщения
Вы не можете удалять свои сообщения
Вы не можете голосовать в опросах
Вы не можете прикреплять файлы к сообщениям
Вы не можете скачивать файлы

▼ Вниз