ML
     
  Уважаемый Гость!
Вы можете поддержать проект и зарегистрироваться у наших партнеров - онлайн-стратегия MyLands. При регистрации в игре Вы получите код, который сможете активировать после регистрации на pirat.ca и получить 1000 дублонов.

Ваш код:
062e2babcc491faeb40d496cf9a498ac3df6cdd0
 
     

На Байкал 2. На абордаж (Михаил Козлов) [2012 г., комедия, WEB-DLRip]

Ответить на тему
 
Автор
Сообщение

Пост 10-Июн-2013 13:18

[Q] 

aleksey99

-На Байкал 2. На абордаж-- Производство: Россия / Синема+
Режиссер: Михаил Козлов
Жанр: комедия
Год выпуска: 2012 г.
Продолжительность: 01:16:42-Российская премьера: 20 сентября 2012-В ролях: Евгений Жамцуев, Михаил Козлов, Сергей Никонов, Александр Хамнушкин, Вероника Михайлова, Дарья Самохина, Александра Чубыкина, Анастасия Воробьева, Александр Баширов, Жаргал Бадмацыренов-Описание: Как мы помним, в первой части фильма студент питерского института кинематографии отправился на Байкал, чтобы снять там свою дипломную работу, а заодно от души повеселиться. Валентина и его друзей ожидало множество самых немыслимых приключений, которые они запомнили на всю оставшуюся жизнь. Надо ли говорить, что в фильме «На Байкал 2: На абордаж» будет еще больше безумия, драйва и отличных шуток?-
-Качество видео: WEB-DLRip
Контейнер: AVI
Видео кодек: XviD
Аудио кодек: MP3
Видео: 720x304 (2.37:1), 25 fps, XviD build 50 ~2219 kbps avg, 0.41 bit/pixel
Аудио: 48 kHz, MPEG Layer 3, 2 ch, ~320.00 kbps avg
Cубтитры: отсутствуют
Общее
Полное имя : H:\Torrent2\Na.Bajkal.2.Na.abordazh.2012.WEBDLRip [pirat.ca].avi
Формат : AVI
Формат/Информация : Audio Video Interleave
Размер файла : 1,37 Гбайт
Продолжительность : 1 ч. 16 м.
Общий поток : 2550 Кбит/сек
Программа кодирования : VirtualDubMod 1.5.10.3 | www.virtualdub-fr.org || (build 2550/release)
Библиотека кодирования : VirtualDubMod build 2550/release
Видео
Идентификатор : 0
Формат : MPEG-4 Visual
Профиль формата : Advanced [email protected]
Параметр BVOP формата : 2
Параметр QPel формата : Нет
Параметр GMC формата : Без точки перехода
Параметр матрицы формата : Default (MPEG)
Идентификатор кодека : XVID
Идентификатор кодека/Подсказка : XviD
Продолжительность : 1 ч. 16 м.
Битрейт : 2220 Кбит/сек
Ширина : 720 пикселей
Высота : 304 пикселя
Соотношение сторон : 2,35:1
Частота кадров : 25,000 кадров/сек
Цветовое пространство : YUV
Субдискретизация насыщенности : 4:2:0
Битовая глубина : 8 бит
Тип развёртки : Прогрессивная
Метод сжатия : С потерями
Бит/(Пиксели*Кадры) : 0.406
Размер потока : 1,19 Гбайт (87%)
Библиотека кодирования : XviD 1.2.1 (UTC 2008-12-04)
Аудио
Идентификатор : 1
Формат : MPEG Audio
Версия формата : Version 1
Профиль формата : Layer 3
Идентификатор кодека : 55
Идентификатор кодека/Подсказка : MP3
Продолжительность : 1 ч. 16 м.
Вид битрейта : Постоянный
Битрейт : 320 Кбит/сек
Каналы : 2 канала
Частота : 48,0 КГц
Метод сжатия : С потерями
Размер потока : 176 Мбайт (13%)
Выравнивание : Соединение по промежуткам
Продолжительность промежутка : 40 мс. (1,00 видеокадр)
Время предзагрузки промежутка : 504 мс.
Библиотека кодирования : LAME3.98r
Настройки программы : -m s -V 4 -q 2 -lowpass 20.5
Download / Скачать

Хотите скачать бесплатно? Зарегистрируйтесь на сайте (ссылка на регистрацию). Pirat.ca - самый быстрый торрент трекер в рунете!

Как скачивать  ·   Что такое торрент  ·   Рейтинг и ограничения

Пост 10-Июн-2013 14:29 (спустя 1 час 10 минут)

Топик был перенесен из форума Наше кино (Трюм) в форум Российские фильмы

ara1205
 

Илья.ru

Морской Волк

Пост 10-Июн-2013 15:09 (спустя 1 час 50 минут)

[Q] 

скорости ну )
[Профиль]  [ЛС] 

андрей иванов

Морской Волк

Пост 10-Июн-2013 18:40 (спустя 3 часа)

[Q] 

спасибо посмотрим)
[Профиль]  [ЛС] 
Показать сообщения:    
Ответить на тему

Текущее время: Сегодня 17:41

Часовой пояс: GMT + 4



Вы не можете начинать темы
Вы не можете отвечать на сообщения
Вы не можете редактировать свои сообщения
Вы не можете удалять свои сообщения
Вы не можете голосовать в опросах
Вы не можете прикреплять файлы к сообщениям
Вы не можете скачивать файлы

▼ Вниз