ML
     
  Уважаемый Гость!
Вы можете поддержать проект и зарегистрироваться у наших партнеров - онлайн-стратегия MyLands. При регистрации в игре Вы получите код, который сможете активировать после регистрации на pirat.ca и получить 1000 дублонов.

Ваш код:
dbd0d701284cde74a1f34d06ce20b7bc75a73e75
 
     

Ночная фиалка (Виктория Держицкая) [2013 г., комедия, криминал, HDTVRip]

Ответить на тему
 
Автор
Сообщение

Пост 27-Июн-2013 11:22

[Q] 

ara1205

-Ночная фиалка-- Производство: Россия
Год выпуска: 2013 г.
Жанр: комедия, криминал
Продолжительность: 01:28:42
Перевод: Не требуется-Режиссер: Виктория Держицкая-В ролях: Наталья Рудова, Иван Жидков, Дмитрий Шевченко, Анатолий Горячев, Игорь Скрипко, Юлия Ковалева, Сергей Крошкин, Петр Королев, Олег Бойко, Анна Масальская, Дмитрий Гудочкин, Антон Арзамасцев, Дарья Пугачева, Валерий Девятых, Елена Знатнова, Дмитрий Царьков, Андрей Жерновой, Максим Лавров, Ольга Григорьева-Описание: Богатый и влиятельный чиновник содержит любовницу — очень красивую девушку Риту, которую он в свое время вытащил из борделя. Он обеспечил ее всем — квартирой, машиной, деньгами, потребовав взамен лишь одного — верности. Рита, ни капли не любя этого щедрого, но жестокого и циничного человека, соблюдает их «договор», но лишь до того момента, пока не встречает свою настоящую и единственную любовь.
Алеша — студент МГУ, он красивый, умный, добрый, из хорошей семьи, и у него отличные перспективы. Безумно влюбившись в Риту, он закрывает глаза и на ее темное прошлое и на не слишком светлое настоящее. Он знает лишь одно — она самая прекрасная девушка на свете и, упоенный любовью, мечтает о том, чтобы жениться на ней.
Покровитель Риты, узнав о неверности любовницы, отнимает все, чем когда-то одарил, выгоняет. Рита и Алеша селятся в маленьком дачном домике в Подмосковье. Они решают провести здесь лето, а затем Алеша найдет работу, и у них появятся деньги, чтобы снимать квартиру…- -Качество видео: HDTVRip
Контейнер: AVI
Видео кодек: XviD
Аудио кодек: AC3
Видео: 720x400, 25 fps, 2007 kbps avg, 0.279 bit/pixel
Аудио: 48 kHz, AC3 Dolby Digital, 2/0 (L,R) ch, ~192.00 kbps avg
Cубтитры: отсутствуют-
Общее
Полное имя : C:\Users\Ромик\Pictures\Посмотреть\Ночная фиалка\Nochnaya.fialka.2013.XviD.HDTVRip.Files-x.avi
Формат : AVI
Формат/Информация : Audio Video Interleave
Размер файла : 1,37 Гбайт
Продолжительность : 1 ч. 28 м.
Общий поток : 2209 Кбит/сек
Программа кодирования : VirtualDubMod 1.5.10.3 | www.virtualdub-fr.org || (build 2550/release)
Библиотека кодирования : VirtualDubMod build 2550/release
Видео
Идентификатор : 0
Формат : MPEG-4 Visual
Профиль формата : Advanced [email protected]
Параметр BVOP формата : 1
Параметр QPel формата : Нет
Параметр GMC формата : Без точки перехода
Параметр матрицы формата : Default (H.263)
Идентификатор кодека : XVID
Идентификатор кодека/Подсказка : XviD
Продолжительность : 1 ч. 28 м.
Битрейт : 2007 Кбит/сек
Ширина : 720 пикселей
Высота : 400 пикселей
Соотношение сторон : 16:9
Частота кадров : 25,000 кадров/сек
Цветовое пространство : YUV
Субдискретизация насыщенности : 4:2:0
Битовая глубина : 8 бит
Тип развёртки : Прогрессивная
Метод сжатия : С потерями
Бит/(Пиксели*Кадры) : 0.279
Размер потока : 1,24 Гбайт (91%)
Библиотека кодирования : XviD 1.2.1 (UTC 2008-12-04)
Аудио
Идентификатор : 1
Формат : AC-3
Формат/Информация : Audio Coding 3
Расширение режима : CM (complete main)
Параметр Endianness формата : Big
Идентификатор кодека : 2000
Продолжительность : 1 ч. 28 м.
Вид битрейта : Постоянный
Битрейт : 192 Кбит/сек
Каналы : 2 канала
Расположение каналов : Front: L R
Частота : 48,0 КГц
Битовая глубина : 16 бит
Метод сжатия : С потерями
Размер потока : 122 Мбайт (9%)
Выравнивание : Разделение по промежуткам
Продолжительность промежутка : 40 мс. (1,00 видеокадр)
Время предзагрузки промежутка : 500 мс.
-
-
-
Download / Скачать

Хотите скачать бесплатно? Зарегистрируйтесь на сайте (ссылка на регистрацию). Pirat.ca - самый быстрый торрент трекер в рунете!

Как скачивать  ·   Что такое торрент  ·   Рейтинг и ограничения

Саша1959

Флибустьер

Пост 27-Июн-2013 15:15 (спустя 3 часа)

[Q] 

!!!!!!!!!!!!!!
[Профиль]  [ЛС] 

GodFather3

Корсар

142

Пост 27-Июн-2013 16:20 (спустя 1 час 4 минуты)

[Q] 

По телевизору как-то показывали. Можно пару раз глянуть.
[Профиль]  [ЛС] 

printoff

Пост 27-Июн-2013 19:24 (спустя 3 часа)

[Q] 

[Профиль]  [ЛС] 

Jek@

Легенда

Пост 28-Июн-2013 08:16 (спустя 12 часов)

[Q] 

[Профиль]  [ЛС] 

infiniti-r

Корсар

Пост 28-Июн-2013 11:15 (спустя 2 часа 59 минут)

[Q] 

[Профиль]  [ЛС] 

cerber73

Морской Волк

Пост 28-Июн-2013 19:53 (спустя 8 часов)

[Q] 

[Профиль]  [ЛС] 

ganja

Шкипер

Пост 30-Июн-2013 02:48 (спустя 1 день 6 часов)

[Q] 

посмотрим-с... bs
[Профиль]  [ЛС] 

sergein

Корсар

Пост 01-Июл-2013 13:35 (спустя 1 день 10 часов)

[Q] 

[Профиль]  [ЛС] 
Показать сообщения:    
Ответить на тему

Текущее время: Сегодня 18:32

Часовой пояс: GMT + 4



Вы не можете начинать темы
Вы не можете отвечать на сообщения
Вы не можете редактировать свои сообщения
Вы не можете удалять свои сообщения
Вы не можете голосовать в опросах
Вы не можете прикреплять файлы к сообщениям
Вы не можете скачивать файлы

▼ Вниз