ML
     
  Уважаемый Гость!
Вы можете поддержать проект и зарегистрироваться у наших партнеров - онлайн-стратегия MyLands. При регистрации в игре Вы получите код, который сможете активировать после регистрации на pirat.ca и получить 1000 дублонов.

Ваш код:
2a3da67fd641d69eeebb7cb965232435a70eaa24
 
     

Невеста моего жениха (Владимир Потапов) [2013 г., мелодрама, HDTVRip]

Ответить на тему
 
Автор
Сообщение

Пост 29-Июн-2013 11:48

[Q] 

ara1205

-Невеста моего жениха-- Производство: Россия
Год выпуска: 2013 г.
Жанр: мелодрама
Продолжительность: 01:33:22
Перевод: Не требуется-Режиссер: Владимир Потапов-В ролях: Татьяна Федоровская, Александр Константинов, Мария Кононова, Людмила Гаврилова, Владимир Жеребцов, Екатерина Травова, Евгения Крылова, Юрий Мосейчук, Наталья Унгард, Ирина Померанцева, Сергей Серов, Сергей Погосян, Рамиль Мубинов, Ярослав Потапов, Ольга Аничкова, Василий Фролов, Армен Филиппов, Элеонора Ильченко, Артур Псакин-Описание: Юля молода, красива и успешна в карьере, но личного счастья в ее жизни давно нет. Три года назад она отказалась уехать в провинцию со своим женихом Вадимом, предпочтя выгодную работу в столице, но найти ему достойную замену так и не смогла.
После очередной неудачной попытки у Юли происходит переоценка ценностей и девушка решает вернуться к проверенному временем и бесконечно любящему ее Вадиму.
Однако героиню ждут плохие новости: молодой человек встретил свою любовь и вот-вот женится на другой. Привыкшая побеждать, Юля решает не сдаваться без боя: она бросает всё и едет в сибирское захолустье в полной решимости вернуть «лучшего мужчину своей жизни»..- -Качество видео: HDTVRip
Контейнер: AVI
Видео кодек: XviD
Аудио кодек: AC3
Видео: 720x400, 25 fps, 1894 kbps avg, 0.263 bit/pixel
Аудио: 48 kHz, AC3 Dolby Digital, 2/0 (L,R) ch, ~192.00 kbps avg
Cубтитры: отсутствуют-
Общее
Полное имя : C:\Users\Ромик\Pictures\Посмотреть\Невеста моего жениха\Nevesta.moego.zhenikha.2013.XviD.HDTVRip.Files-x.avi
Формат : AVI
Формат/Информация : Audio Video Interleave
Размер файла : 1,37 Гбайт
Продолжительность : 1 ч. 33 м.
Общий поток : 2095 Кбит/сек
Программа кодирования : VirtualDubMod 1.5.10.3 | www.virtualdub-fr.org || (build 2550/release)
Библиотека кодирования : VirtualDubMod build 2550/release
Видео
Идентификатор : 0
Формат : MPEG-4 Visual
Профиль формата : Advanced [email protected]
Параметр BVOP формата : 1
Параметр QPel формата : Нет
Параметр GMC формата : Без точки перехода
Параметр матрицы формата : Default (H.263)
Идентификатор кодека : XVID
Идентификатор кодека/Подсказка : XviD
Продолжительность : 1 ч. 33 м.
Битрейт : 1894 Кбит/сек
Ширина : 720 пикселей
Высота : 400 пикселей
Соотношение сторон : 16:9
Частота кадров : 25,000 кадров/сек
Цветовое пространство : YUV
Субдискретизация насыщенности : 4:2:0
Битовая глубина : 8 бит
Тип развёртки : Прогрессивная
Метод сжатия : С потерями
Бит/(Пиксели*Кадры) : 0.263
Размер потока : 1,24 Гбайт (90%)
Библиотека кодирования : XviD 1.2.1 (UTC 2008-12-04)
Аудио
Идентификатор : 1
Формат : AC-3
Формат/Информация : Audio Coding 3
Расширение режима : CM (complete main)
Параметр Endianness формата : Big
Идентификатор кодека : 2000
Продолжительность : 1 ч. 33 м.
Вид битрейта : Постоянный
Битрейт : 192 Кбит/сек
Каналы : 2 канала
Расположение каналов : Front: L R
Частота : 48,0 КГц
Битовая глубина : 16 бит
Метод сжатия : С потерями
Размер потока : 128 Мбайт (9%)
Выравнивание : Разделение по промежуткам
Продолжительность промежутка : 40 мс. (1,00 видеокадр)
Время предзагрузки промежутка : 500 мс.
-
-
-
Download / Скачать

Хотите скачать бесплатно? Зарегистрируйтесь на сайте (ссылка на регистрацию). Pirat.ca - самый быстрый торрент трекер в рунете!

Как скачивать  ·   Что такое торрент  ·   Рейтинг и ограничения

infiniti-r

Корсар

Пост 29-Июн-2013 12:39 (спустя 50 минут)

[Q] 

Скачаю жене! Пусть порадуется)))) Спасибо!
[Профиль]  [ЛС] 

vslav

Штурман

Пост 29-Июн-2013 15:06 (спустя 2 часа 27 минут)

[Q] 

аналогично.Спасибо!!!
[Профиль]  [ЛС] 

yulya230784

Морской Волк

927

Пост 21-Июл-2013 17:28 (спустя 22 дня)

[Q] 

Немного наивный, но хороший фильм.
[Профиль]  [ЛС] 
Показать сообщения:    
Ответить на тему

Текущее время: Сегодня 01:17

Часовой пояс: GMT + 4



Вы не можете начинать темы
Вы не можете отвечать на сообщения
Вы не можете редактировать свои сообщения
Вы не можете удалять свои сообщения
Вы не можете голосовать в опросах
Вы не можете прикреплять файлы к сообщениям
Вы не можете скачивать файлы

▼ Вниз