ML
     
  Уважаемый Гость!
Вы можете поддержать проект и зарегистрироваться у наших партнеров - онлайн-стратегия MyLands. При регистрации в игре Вы получите код, который сможете активировать после регистрации на pirat.ca и получить 1000 дублонов.

Ваш код:
8b29d0f8cd61fe457e59e7df0aa1fab41a2b88b9
 
     

Убийство на 100 миллионов (Роман Мушегян) [2013 г., детектив, DVDRip]

Ответить на тему
 
Автор
Сообщение

Пост 02-Июл-2013 09:30

[Q] 

aleksejj

Корсар

-Убийство на 100 миллионов-- Производство: Россия, Berg Sound
Режиссер: Роман Мушегян
Жанр: детектив
Год выпуска: 2013 г.
Продолжительность: 01:47:14
Озвучивание: Оригинал [Лицензия]
Дата выхода DVD: 25 апреля 2013, «Мистерия Звука»
В ролях: Олег Шкловский, Алёна Яковлева, Михаил Ремизов, Сергей Комаров (II), Екатерина Стриженова, Станислав Эрклиевский, Сергей Астахов, Роман Полянский, Мария Антипп, Борис Эстрин, Иван Николаев, Дмитрий Муляр, Евгений Данчевский
Описание: В одном крупном банке поздно вечером происходит взрыв. В это время на месте должен был находиться владелец банка, но кабинет разворочен, а тело не нашли. Подозрение в организации взрыва и пропаже большой суммы падает на ближайший круг банкира. У каждого был свой мотив сделать это. Все близкие люди банкира попадают под пристальное внимание полиции и криминальных кругов. В результате расследования на свет выплывают многие нелицеприятные факты из жизни всех героев истории, и как следствие, мотивы каждого из них множатся на глазах! Кто же, в конце концов, окажется тем самым, кто организовал взрыв и присвоил 100 миллионов?-КиноПоиск
Качество видео: DVDRip
Контейнер: AVI
Видео кодек: XviD
Аудио кодек: AC3
Видео: 720x352 (2.05:1), 25 fps, XviD build 50 ~1625 kbps avg, 0.26 bit/pixel
Аудио: 48 kHz, AC3 Dolby Digital, 2/0 (L,R) ch, ~192 kbps
Cубтитры: отсутствуют
Общее
Полное имя : F:\Ubyistvo.[pirat.ca].avi
Формат : AVI
Формат/Информация : Audio Video Interleave
Размер файла : 1,37 Гбайт
Продолжительность : 1 ч. 47 м.
Общий поток : 1828 Кбит/сек
Программа кодирования : VirtualDubMod 1.5.10.3 | www.virtualdub-fr.org || (build 2550/release)
Библиотека кодирования : VirtualDubMod build 2550/release
Видео
Идентификатор : 0
Формат : MPEG-4 Visual
Профиль формата : Advanced [email protected]
Параметр BVOP формата : 2
Параметр QPel формата : Нет
Параметр GMC формата : Без точки перехода
Параметр матрицы формата : Default (MPEG)
Идентификатор кодека : XVID
Идентификатор кодека/Подсказка : XviD
Продолжительность : 1 ч. 47 м.
Битрейт : 1626 Кбит/сек
Ширина : 720 пикселей
Высота : 352 пикселя
Соотношение сторон : 2,045
Частота кадров : 25,000 кадров/сек
Цветовое пространство : YUV
Субдискретизация насыщенности : 4:2:0
Битовая глубина : 8 бит
Тип развёртки : Прогрессивная
Метод сжатия : С потерями
Бит/(Пиксели*Кадры) : 0.257
Размер потока : 1,22 Гбайт (89%)
Библиотека кодирования : XviD 1.2.1 (UTC 2008-12-04)
Аудио
Идентификатор : 1
Формат : AC-3
Формат/Информация : Audio Coding 3
Расширение режима : CM (complete main)
Параметр Endianness формата : Big
Идентификатор кодека : 2000
Продолжительность : 1 ч. 47 м.
Вид битрейта : Постоянный
Битрейт : 192 Кбит/сек
Каналы : 2 канала
Расположение каналов : Front: L R
Частота : 48,0 КГц
Битовая глубина : 16 бит
Метод сжатия : С потерями
Задержка видео : 1 с. 800 мс.
Размер потока : 147 Мбайт (11%)
Выравнивание : Разделение по промежуткам
Продолжительность промежутка : 40 мс. (1,00 видеокадр)
Время предзагрузки промежутка : 500 мс.
Download / Скачать

Хотите скачать бесплатно? Зарегистрируйтесь на сайте (ссылка на регистрацию). Pirat.ca - самый быстрый торрент трекер в рунете!

Как скачивать  ·   Что такое торрент  ·   Рейтинг и ограничения

Пост 02-Июл-2013 11:14 (спустя 1 час 43 минуты)

Топик был перенесен из форума Наше кино (Трюм) в форум Новинки (HD|DVD|BD| TV|SAT|PDTV| - Rips)

ara1205
 

_Marks_

Флибустьер

Пост 02-Июл-2013 16:39 (спустя 7 часов)

[Q] 

буду первым.)
[Профиль]  [ЛС] 

_Marks_

Флибустьер

Пост 02-Июл-2013 18:59 (спустя 2 часа 19 минут)

[Q] 

Вот это фильмец!!! посмотрел с удовольствием. 10 из 10-ти!
[Профиль]  [ЛС] 

Olegarkh73

Корсар

240

Пост 02-Июл-2013 23:29 (спустя 4 часа)

[Q] 

[Профиль]  [ЛС] 

гришасемечкин

Корсар

1176

Пост 03-Июл-2013 08:04 (спустя 8 часов)

[Q] 

Поглядим !
[Профиль]  [ЛС] 

sergein

Корсар

Пост 03-Июл-2013 13:45 (спустя 5 часов)

[Q] 

[Профиль]  [ЛС] 

polozm

Легенда

Пост 03-Июл-2013 17:22 (спустя 3 часа)

[Q] 

чего правда хороший?или глумитесь?

_________________
mac mini -2.0 GHz Intel Core i7/ 8 GB DDR3. /Intel HD 3000(512mb)OS X 10.9 Mavericks
[Профиль]  [ЛС] 

dadec39

Корсар

Пост 05-Июл-2013 00:35 (спустя 1 день 7 часов)

[Q] 

Фильм хороший.Правда хороший.
[Профиль]  [ЛС] 

kalmyk73

Морской Волк

Пост 05-Июл-2013 11:29 (спустя 10 часов)

[Q] 

Фильм посредственный. Жалкая породия на 10 негритят. оценка 3+

_________________
Я люблю тебя жизнь ну а ты меня СНОВА И СНОВА.
[Профиль]  [ЛС] 

savatey

Корсар

Пост 05-Июл-2013 11:40 (спустя 10 минут)

[Q] 

Спасибо! Нормальный фильм.

_________________
[Профиль]  [ЛС] 

Jek@

Легенда

Пост 31-Июл-2013 02:45 (спустя 25 дней)

[Q] 

Спасибо!!! .
[Профиль]  [ЛС] 

volkodav-10

Корсар

Пост 31-Июл-2013 10:44 (спустя 7 часов)

[Q] 

Российские фильмы редко бывают хорошими.

_________________
Каждому своё.
[Профиль]  [ЛС] 

dolphin black

Шкипер

Пост 01-Авг-2013 17:46 (спустя 1 день 7 часов)

[Q] 

глянем но с насторожением Спасибо!!! Лови бочку
[Профиль]  [ЛС] 

Dr.Аlex

Штурман

Пост 05-Авг-2013 03:51 (спустя 3 дня)

[Q] 

Поддержу раздачу Супер! Раздающему респект! Лови бочку

_________________
[Профиль]  [ЛС] 

Simsim

Морской Волк

Пост 16-Авг-2013 12:11 (спустя 11 дней)

[Q] 

Спасибо за хороший фильм !
[Профиль]  [ЛС] 
Показать сообщения:    
Ответить на тему

Текущее время: Сегодня 21:21

Часовой пояс: GMT + 4



Вы не можете начинать темы
Вы не можете отвечать на сообщения
Вы не можете редактировать свои сообщения
Вы не можете удалять свои сообщения
Вы не можете голосовать в опросах
Вы не можете прикреплять файлы к сообщениям
Вы не можете скачивать файлы

▼ Вниз