ML
     
  Уважаемый Гость!
Вы можете поддержать проект и зарегистрироваться у наших партнеров - онлайн-стратегия MyLands. При регистрации в игре Вы получите код, который сможете активировать после регистрации на pirat.ca и получить 1000 дублонов.

Ваш код:
69f316be79867e9bf99caee9682d20bb11964507
 
     

Последний уик-энд (Павел Санаев) [2005 г., триллер, DVDRip]

Ответить на тему
 
Автор
Сообщение

Пост 05-Июл-2013 10:57

[Q] 

moscowpan

-Последний уик-энд-«Даже простая шутка может сделать любой уик-энд последним»- Производство: Киностудия "ГЛОБУС"
Режиссер: Павел Санаев
Жанр: триллер
Год выпуска: 2005 г.
Продолжительность: 01:26:36
Российская премьера: 7 ноября 2005
Дата выхода DVD: 1 декабря 2005
В ролях: Иван Стебунов, Татьяна Арнтгольц, Артем Семакин, Илья Соколовский, Гоша Куценко-Описание: Владалец охранной фирмы, в прошлом криминальный авторитет го кличке Бешеный, решил отправить своего любимого младшего брата Мишу на учебу в Америку, а чтобы брат не скучал в далекой стране, готов даже отправить вместе с ним его лучшего друга Кирилла. Пацаны устраивают прощальную вечеринку для друзей, на которой Мишка в результате несчастного случая гибнет. Оказавшись в одной компании с трупом, испугавшись суровой расправы Бешеного, друзья принимают решение избавиться от тела. Рецепт предлагает бывший десантник Глеб -труп надо обложить покрышками и сжечь далеко за городом. И вот тело друга уложено в багажник вместе со старыми шинами, и Кирилл садится за руль старого Кадиллака, чтобы тронуться в путь. Если бы он знал, что его малодушие запустило в действие рок - беспощадный механизм, готовый уничтожить их всех. Это бып их последний уик-энд...-
Качество видео: DVDRip
Контейнер: AVI
Видео кодек: XviD
Аудио кодек: AC3
Видео: 720x432 (1.67:1), 25 fps, XviD build 47 ~2184 kbps avg, 0.28 bit/pixel
Аудио: 48 kHz, AC3 Dolby Digital, 2/0 (L,R) ch, ~224.00 kbps avg
Cубтитры: отсутствуют
Ника, 2006 год
Номинации (1):
  • Открытие года (Павел Санаев)
Общее
Полное имя : Z:\Posledniy_Weekend.avi
Формат : AVI
Формат/Информация : Audio Video Interleave
Размер файла : 1,46 Гбайт
Продолжительность : 1 ч. 26 м.
Общий поток : 2418 Кбит/сек
Программа кодирования : VirtualDubMod 1.5.10.2 (build 2540/release)
Библиотека кодирования : VirtualDubMod build 2540/release
Видео
Идентификатор : 0
Формат : MPEG-4 Visual
Профиль формата : Advanced [email protected]
Параметр BVOP формата : 1
Параметр QPel формата : Нет
Параметр GMC формата : Без точки перехода
Параметр матрицы формата : Default (MPEG)
Идентификатор кодека : XVID
Идентификатор кодека/Подсказка : XviD
Продолжительность : 1 ч. 26 м.
Битрейт : 2185 Кбит/сек
Ширина : 720 пикселей
Высота : 432 пикселя
Соотношение сторон : 1,667
Частота кадров : 25,000 кадров/сек
Цветовое пространство : YUV
Субдискретизация насыщенности : 4:2:0
Битовая глубина : 8 бит
Тип развёртки : Прогрессивная
Метод сжатия : С потерями
Бит/(Пиксели*Кадры) : 0.281
Размер потока : 1,32 Гбайт (90%)
Библиотека кодирования : XviD 1.2.0.dev47 (UTC 2006-11-01)
Аудио
Идентификатор : 1
Формат : AC-3
Формат/Информация : Audio Coding 3
Расширение режима : CM (complete main)
Параметр Endianness формата : Big
Идентификатор кодека : 2000
Продолжительность : 1 ч. 26 м.
Вид битрейта : Постоянный
Битрейт : 224 Кбит/сек
Каналы : 2 канала
Расположение каналов : Front: L R
Частота : 48,0 КГц
Битовая глубина : 16 бит
Метод сжатия : С потерями
Размер потока : 139 Мбайт (9%)
Выравнивание : Разделение по промежуткам
Продолжительность промежутка : 40 мс. (1,00 видеокадр)
Время предзагрузки промежутка : 500 мс.
Download / Скачать

Хотите скачать бесплатно? Зарегистрируйтесь на сайте (ссылка на регистрацию). Pirat.ca - самый быстрый торрент трекер в рунете!

Как скачивать  ·   Что такое торрент  ·   Рейтинг и ограничения

Пост 06-Июл-2013 08:18 (спустя 21 час)

Топик был перенесен из форума Наше кино (Трюм) в форум Российские фильмы

ara1205
 
Показать сообщения:    
Ответить на тему

Текущее время: Сегодня 14:33

Часовой пояс: GMT + 4



Вы не можете начинать темы
Вы не можете отвечать на сообщения
Вы не можете редактировать свои сообщения
Вы не можете удалять свои сообщения
Вы не можете голосовать в опросах
Вы не можете прикреплять файлы к сообщениям
Вы не можете скачивать файлы

▼ Вниз