ML
     
  Уважаемый Гость!
Вы можете поддержать проект и зарегистрироваться у наших партнеров - онлайн-стратегия MyLands. При регистрации в игре Вы получите код, который сможете активировать после регистрации на pirat.ca и получить 1000 дублонов.

Ваш код:
21acd5966619d49ad0b90c3305467b4646cc11a8
 
     

Решала (Роман Асхаев) [2012 г., драма, криминал, WEB-DLRip]

Ответить на тему
 
Автор
Сообщение

Пост 10-Июл-2013 14:40

[Q] 

aleksey99

-Решала-- Производство: Россия
Режиссер: Роман Асхаев
Жанр: драма, криминал
Год выпуска: 2012 г.
Продолжительность: 01:19:10-Российская премьера: 22 ноября 2012-В ролях: Александр Фролов, Константин Озеров, Алина Намсараева, Мосэ Куртанидзэ, Руслан Балакшиев, Лариса Иринцеева-Описание: Фильм о двух братьях. Старший — юрист, успешный человек, к нему обращаются за решением различных вопросов. Но ему предстоит решить самую главную задачу своей жизни - вытащить младшего брата из криминальной передряги...-
-Качество видео: WEB-DLRip
Контейнер: AVI
Видео кодек: XviD
Аудио кодек: AC3
Видео: 720x304 (2.37:1), 24.000 fps, XviD build 50 ~2206 kbps avg, 0.42 bit/pixel
Аудио: 48 kHz, AC3 Dolby Digital, 2/0 (L,R) ch, ~256 kbps
Cубтитры: Отсутствуют
Общее
Полное имя : H:\Torrent2\Reshala.2012.O.WEBDLRip[pirat.ca].avi
Формат : AVI
Формат/Информация : Audio Video Interleave
Размер файла : 1,37 Гбайт
Продолжительность : 1 ч. 19 м.
Общий поток : 2472 Кбит/сек
Программа кодирования : VirtualDubMod 1.5.10.3 | www.virtualdub-fr.org || (build 2550/release)
Библиотека кодирования : VirtualDubMod build 2550/release
Видео
Идентификатор : 0
Формат : MPEG-4 Visual
Профиль формата : Advanced [email protected]
Параметр BVOP формата : 2
Параметр QPel формата : Нет
Параметр GMC формата : Без точки перехода
Параметр матрицы формата : Default (MPEG)
Идентификатор кодека : XVID
Идентификатор кодека/Подсказка : XviD
Продолжительность : 1 ч. 19 м.
Битрейт : 2206 Кбит/сек
Ширина : 720 пикселей
Высота : 304 пикселя
Соотношение сторон : 2,35:1
Частота кадров : 24,000 кадра/сек
Цветовое пространство : YUV
Субдискретизация насыщенности : 4:2:0
Битовая глубина : 8 бит
Тип развёртки : Прогрессивная
Метод сжатия : С потерями
Бит/(Пиксели*Кадры) : 0.420
Размер потока : 1,22 Гбайт (89%)
Библиотека кодирования : XviD 1.2.1 (UTC 2008-12-04)
Аудио
Идентификатор : 1
Формат : AC-3
Формат/Информация : Audio Coding 3
Расширение режима : CM (complete main)
Параметр Endianness формата : Big
Идентификатор кодека : 2000
Продолжительность : 1 ч. 19 м.
Вид битрейта : Постоянный
Битрейт : 256 Кбит/сек
Каналы : 2 канала
Расположение каналов : Front: L R
Частота : 48,0 КГц
Битовая глубина : 16 бит
Метод сжатия : С потерями
Размер потока : 145 Мбайт (10%)
Выравнивание : Разделение по промежуткам
Продолжительность промежутка : 42 мс. (1,00 видеокадр)
Время предзагрузки промежутка : 500 мс.
Download / Скачать

Хотите скачать бесплатно? Зарегистрируйтесь на сайте (ссылка на регистрацию). Pirat.ca - самый быстрый торрент трекер в рунете!

Как скачивать  ·   Что такое торрент  ·   Рейтинг и ограничения

Дядя Витя

53938

Пост 10-Июл-2013 17:35 (спустя 2 часа 55 минут)

[Q] 


_________________
?
[Профиль]  [ЛС] 

Пост 10-Июл-2013 17:46 (спустя 11 минут)

Топик был перенесен из форума Наше кино (Трюм) в форум Российские фильмы

ara1205
 

Принц Датский

Корсар

Пост 10-Июл-2013 20:31 (спустя 2 часа 55 минут)

[Q] 

fg
Какой-то бурятский народный эпос...Это даже не 90е...не 80е...это ХЗ что!

_________________
[Профиль]  [ЛС] 

Frai89

Флибустьер

42

Пост 25-Ноя-2013 19:16 (спустя 4 месяца 14 дней)

[Q] 

оч советовали этот фильм
[Профиль]  [ЛС] 

ScorpioKZ

Шкипер

Пост 24-Янв-2014 10:24 (спустя 1 месяц 28 дней)

[Q] 

454170оч советовали этот фильм
Мне тоже, вот качаю, хочу посмотреть.
И как тебе, посмотрел?
З.Ы.
Автору респект!!!
Добавлено спустя 16 минут 22 секунды:
пипл плиз
Эй, вернитесь на раздачу...
[Профиль]  [ЛС] 

tyz82

Шкипер

Пост 01-Фев-2014 15:38 (спустя 8 дней)

[Q] 

хочу посмотреть

_________________
Не так страшен Русский танк, как его пьяный экипаж !!!
[Профиль]  [ЛС] 

MadDon

Штурман

Пост 02-Фев-2014 03:45 (спустя 12 часов)

[Q] 

Фильм на раз,не грузит...мне понравился.Если хотите посмотреть фильм вечерком,то рекомендую!
[Профиль]  [ЛС] 

alexkalchenko

Корсар

40

Пост 24-Фев-2014 20:30 (спустя 22 дня)

[Q] 

фильм не плох для одного раза, но мне почему то показалось что снят на "скорую руку".
[Профиль]  [ЛС] 

Вальтер

Шкипер

Пост 31-Июл-2015 18:19 (спустя 1 год 5 месяцев)

[Q] 

фильм просто от души качайте все
[Профиль]  [ЛС] 

polyk

Флибустьер

Пост 18-Окт-2015 14:07 (спустя 2 месяца 17 дней)

[Q] 

сильное кино!!!!!!!!!!
[Профиль]  [ЛС] 

platon18

Гроза морей

Пост 21-Окт-2015 09:27 (спустя 2 дня 19 часов)

[Q] 

709127сильное кино!!!!!!!!!!
и в чем там сила?
[Профиль]  [ЛС] 

Maks_e

Корсар

69

Пост 02-Дек-2015 03:37 (спустя 1 месяц 11 дней)

[Q] 

Спасибо!!! Супер!
[Профиль]  [ЛС] 

Urgen Cap

Шкипер

Пост 07-Дек-2015 10:02 (спустя 5 дней)

[Q] 

Спасибо!!! Супер!

_________________
Бойся козла спереди, а осла сзади (® Русские пословицы и поговорки).
[Профиль]  [ЛС] 

KoNiaL_KCC

Гроза морей

Пост 20-Дек-2015 13:58 (спустя 13 дней)

[Q] 

спасибо. набор актеров радует, посмотрю
[Профиль]  [ЛС] 
Показать сообщения:    
Ответить на тему

Текущее время: Сегодня 23:20

Часовой пояс: GMT + 4



Вы не можете начинать темы
Вы не можете отвечать на сообщения
Вы не можете редактировать свои сообщения
Вы не можете удалять свои сообщения
Вы не можете голосовать в опросах
Вы не можете прикреплять файлы к сообщениям
Вы не можете скачивать файлы

▼ Вниз