ML
     
  Уважаемый Гость!
Вы можете поддержать проект и зарегистрироваться у наших партнеров - онлайн-стратегия MyLands. При регистрации в игре Вы получите код, который сможете активировать после регистрации на pirat.ca и получить 1000 дублонов.

Ваш код:
1a5b0a965618b2c406d4279ec9924ee6282c60cf
 
     

За Маркса... (Светлана Баскова) [2012 г., драма, DVDRip]

Ответить на тему
 
Автор
Сообщение

Пост 19-Июл-2013 19:15

[Q] 

aleksey99

-За Маркса...-- Производство: Россия, Cine Fantom
Режиссер: Светлана Баскова
Жанр: драма
Год выпуска: 2012 г.
Продолжительность: 01:42:20-Мировая премьера: 8 февраля 2013
Российская премьера: 14 марта 2013, «Сине Фантом»
Дата выхода DVD: 25 июля 2013, «CD Land»-В ролях: Сергей Пахомов, Владимир Епифанцев, Виктор Сергачев, Лаврентий Светличный, Денис Яковлев, Михаил Калинкин, Александр Ковалев-Описание: Фильм основан на событиях кризисного времени, когда владельцы производства пытаются решать свои проблемы за счет рабочих людей, обнищавших за последние годы. Главный конфликт внутри фильма между — новыми капиталистами и рабочим классом, вышедшем из советского времени. «Новыми русскими» и советскими рабочими.-
Трейлер-Качество видео: DVDRip
Контейнер: AVI
Видео кодек: XviD
Аудио кодек: AC3
Видео: 720x384 (1.88:1), 25 fps, XviD build 50 ~1454 kbps avg, 0.21 bit/pixel
Аудио: 48 kHz, AC3 Dolby Digital, 3/2 (L,C,R,l,r) + LFE ch, ~448 kbps
Cубтитры: Отсутствуют
Общее
Полное имя : H:\Torrent2\Za.marksa.2013.O.DVDRip.1400MB[pirat.ca].avi
Формат : AVI
Формат/Информация : Audio Video Interleave
Размер файла : 1,37 Гбайт
Продолжительность : 1 ч. 42 м.
Общий поток : 1913 Кбит/сек
Программа кодирования : VirtualDubMod 1.5.10.2 (build 2540/release)
Библиотека кодирования : VirtualDubMod build 2540/release
Видео
Идентификатор : 0
Формат : MPEG-4 Visual
Профиль формата : Advanced [email protected]
Параметр BVOP формата : 2
Параметр QPel формата : Нет
Параметр GMC формата : Без точки перехода
Параметр матрицы формата : Default (MPEG)
Идентификатор кодека : XVID
Идентификатор кодека/Подсказка : XviD
Продолжительность : 1 ч. 42 м.
Битрейт : 1455 Кбит/сек
Ширина : 720 пикселей
Высота : 384 пикселя
Соотношение сторон : 1,85:1
Частота кадров : 25,000 кадров/сек
Цветовое пространство : YUV
Субдискретизация насыщенности : 4:2:0
Битовая глубина : 8 бит
Тип развёртки : Прогрессивная
Метод сжатия : С потерями
Бит/(Пиксели*Кадры) : 0.210
Размер потока : 1,04 Гбайт (76%)
Библиотека кодирования : XviD 1.2.1 (UTC 2008-12-04)
Аудио
Идентификатор : 1
Формат : AC-3
Формат/Информация : Audio Coding 3
Расширение режима : CM (complete main)
Параметр Endianness формата : Big
Идентификатор кодека : 2000
Продолжительность : 1 ч. 42 м.
Вид битрейта : Постоянный
Битрейт : 448 Кбит/сек
Каналы : 6 каналов
Расположение каналов : Front: L C R, Side: L R, LFE
Частота : 48,0 КГц
Битовая глубина : 16 бит
Метод сжатия : С потерями
Размер потока : 328 Мбайт (23%)
Выравнивание : Разделение по промежуткам
Продолжительность промежутка : 40 мс. (1,00 видеокадр)
Время предзагрузки промежутка : 500 мс.
Download / Скачать

Хотите скачать бесплатно? Зарегистрируйтесь на сайте (ссылка на регистрацию). Pirat.ca - самый быстрый торрент трекер в рунете!

Как скачивать  ·   Что такое торрент  ·   Рейтинг и ограничения

Пост 19-Июл-2013 19:20 (спустя 4 минуты)

Топик был перенесен из форума Наше кино (Трюм) в форум Новинки (HD|DVD|BD| TV|SAT|PDTV| - Rips)

erchine
 

Mixrool

Корсар

Пост 19-Июл-2013 22:00 (спустя 2 часа 44 минуты)

[Q] 

давненько ждал
[Профиль]  [ЛС] 

Livesey

Лоцман

Пост 19-Июл-2013 22:01 (спустя 24 секунды)

[Q] 

Если в главной роли пахом, уже стоит посмотреть
[Профиль]  [ЛС] 

shapirus

Штурман

Пост 19-Июл-2013 23:13 (спустя 1 час 12 минут)

[Q] 

Хороший фильм. Всем качать.
[Профиль]  [ЛС] 

golaid

Штурман

Пост 20-Июл-2013 04:15 (спустя 5 часов)

[Q] 

[Профиль]  [ЛС] 

MaXoR

Флибустьер

1474

Пост 20-Июл-2013 07:20 (спустя 3 часа)

[Q] 

Спасибо! Ждал давно! В предвкушении...

_________________
Живы будем - не помрем!
[Профиль]  [ЛС] 

kuzhavaka

Морской Волк

Пост 20-Июл-2013 21:04 (спустя 13 часов)

[Q] 

бред!
[Профиль]  [ЛС] 

tony7673

Лоцман

Пост 21-Июл-2013 16:55 (спустя 19 часов)

[Q] 

кризис жанра. полная дрянь...
[Профиль]  [ЛС] 

Sokrat84

Лоцман

Пост 21-Июл-2013 23:16 (спустя 6 часов)

[Q] 

Нужно так пафасно написать: "От создателей Зелёного слоника,
Пять бутылок водки! " но кстати стоит взглянуть ради интереса!
[Профиль]  [ЛС] 

Versus71

Шкипер

Пост 22-Июл-2013 13:17 (спустя 14 часов)

[Q] 

Этот фильм должен был нас представлять на премии Оскар и в Каннах, и несомненно взять главные статуэтки.

_________________
Endspiel.us
[Профиль]  [ЛС] 

Максимус666

Морской Волк

Пост 24-Июл-2013 08:48 (спустя 1 день 19 часов)

[Q] 


_________________
Тысяча чертей!
[Профиль]  [ЛС] 

ivasik007

Морской Волк

Пост 24-Июл-2013 11:22 (спустя 2 часа 33 минуты)

[Q] 

глянем
[Профиль]  [ЛС] 

VictorSor

Штурман

Пост 03-Авг-2013 19:18 (спустя 10 дней)

[Q] 

Уже несколько дней под впечатлением. Авторы доказали что русская культура не умерла, ищет новые формы и т.д. Исключительно точно выписаны владельцы рашкинского бизнеса - у нас на фирме точно такие же уроды, совпадение на 99,999%, а стремлений и методов - на 100%. ИМХО по таким фильмам наше время будут изучать, место в учебнике гарантировано. Респект Авторам и нашему Сытину aleksey99 :-) Всем качать!!!
[Профиль]  [ЛС] 

piratdog

Лоцман

Пост 04-Авг-2013 11:01 (спустя 15 часов)

[Q] 

Мажорам не смотреть
[Профиль]  [ЛС] 

piratdog

Лоцман

Пост 04-Авг-2013 11:01 (спустя 0 секунд)

[Q] 

рабочим нужно создавать свои собственные, независимые профсоюзы, этого хозяева очень боятся, т.к. профсоюзы по закону - юр. лица
[Профиль]  [ЛС] 

kronzvk

Шкипер

Пост 26-Авг-2013 01:56 (спустя 21 день)

[Q] 

Супер!
[Профиль]  [ЛС] 

maxwell2010

Лоцман

Пост 27-Авг-2013 17:35 (спустя 1 день 15 часов)

[Q] 

фильм явно снимали алигархи чтобы еще раз подчеркнуть что мы быдло. На любителя
[Профиль]  [ЛС] 

mamkaololo

Шкипер

Пост 10-Янв-2014 14:26 (спустя 4 месяца 13 дней)

[Q] 

А мне фильм понравился.Учитывая что именно в этот жанр я не особо люблю...спасибо,встаю на раздачу.

_________________
Люблю Riddim и GlitchHop
[Профиль]  [ЛС] 
Показать сообщения:    
Ответить на тему

Текущее время: Сегодня 23:53

Часовой пояс: GMT + 4



Вы не можете начинать темы
Вы не можете отвечать на сообщения
Вы не можете редактировать свои сообщения
Вы не можете удалять свои сообщения
Вы не можете голосовать в опросах
Вы не можете прикреплять файлы к сообщениям
Вы не можете скачивать файлы

▼ Вниз