ML
     
  Уважаемый Гость!
Вы можете поддержать проект и зарегистрироваться у наших партнеров - онлайн-стратегия MyLands. При регистрации в игре Вы получите код, который сможете активировать после регистрации на pirat.ca и получить 1000 дублонов.

Ваш код:
156f85568ae63e45e07ac461c96a83ba1a876b0a
 
     

Репортаж (Владимир Балкашинов) [1995 г., драма, DVDRip]

Ответить на тему
 
Автор
Сообщение

Пост 26-Дек-2011 20:23

[Q] 

alexandr.x79

Корсар

Репортаж
Год выпуска: 1995
Жанр: драма
Продолжительность: 01:28:24
Режиссер: Владимир Балкашинов
В ролях: Игорь Бочкин,Марина Могилевская,Анатолий Равикович,Давид Бабаев,Александр Вилков,Светлана Прус,Владимир Балкашинов,Станислав Боклан,Денис Карасев,Борис Небиеридзе.
Описание: Американская журналистка узнает о «вакцине любви», синтезированной доктором Пиштеряну. В поисках героине помогает бывший десантник, в недалеком будущем — преуспевающий бизнесмен, а ныне — пьяница Павло…
Источник/Качество: DVDRip
Формат: AVI
Видео кодек: XviD
Аудио кодек: AC3
Видео: 704x528 (1.33:1), 25 fps, XviD MPEG-4 ~1765 kbps avg, 0.19 bit/pixel
Аудио: 48 kHz, AC3 Dolby Digital, 2/0 (L,R) ch, ~448 kbps
Формат : AVI
Формат/Информация : Audio Video Interleave
Размер файла : 1,37 Гбайт
Продолжительность : 1 ч. 28 м.
Общий поток : 2223 Кбит/сек
Программа кодирования : VirtualDubMod 1.5.10.2 (build 2540/release)
Библиотека кодирования : VirtualDubMod build 2540/release
Видео
Идентификатор : 0
Формат : MPEG-4 Visual
Профиль формата : Advanced [email protected]
Параметр BVOP формата : 1
Параметр QPel формата : Нет
Параметр GMC формата : Без точки перехода
Параметр матрицы формата : Default (MPEG)
Режим смешивания : Сжатый битовый поток
Идентификатор кодека : XVID
Идентификатор кодека/Подсказка : XviD
Продолжительность : 1 ч. 28 м.
Битрейт : 1766 Кбит/сек
Ширина : 704 пикселя
Высота : 528 пикселей
Соотношение сторон : 4:3
Частота кадров : 25,000 кадров/сек
Цветовое пространство : YUV
Субдискретизация насыщенности : 4:2:0
Битовая глубина : 8 бит
Тип развёртки : Прогрессивная
Метод сжатия : С потерями
Бит/(Пиксели*Кадры) : 0.190
Размер потока : 1,09 Гбайт (79%)
Библиотека кодирования : XviD 1.2.0.dev47 (UTC 2006-11-01)
Аудио
Идентификатор : 1
Формат : AC-3
Формат/Информация : Audio Coding 3
Расширение режима : CM (complete main)
Идентификатор кодека : 2000
Продолжительность : 1 ч. 28 м.
Вид битрейта : Постоянный
Битрейт : 448 Кбит/сек
Каналы : 2 канала
Расположение каналов : Front: L R
Частота : 48,0 КГц
Битовая глубина : 16 бит
Метод сжатия : С потерями
Размер потока : 283 Мбайт (20%)
Выравнивание : Разделение по промежуткам
Продолжительность промежутка : 40 мс. (1,00 видеокадр)
Время предзагрузки промежутка : 500 мс.
Download / Скачать

Хотите скачать бесплатно? Зарегистрируйтесь на сайте (ссылка на регистрацию). Pirat.ca - самый быстрый торрент трекер в рунете!

Как скачивать  ·   Что такое торрент  ·   Рейтинг и ограничения

Пост 26-Дек-2011 20:54 (спустя 30 минут)

Топик был перенесен из форума Наше Кино в форум Российские фильмы

Skinwalker
 

nosferato

Штурман

Пост 26-Дек-2011 21:26 (спустя 1 час 2 минуты)

[Q] 

Спасибо, забираю.

_________________
Велик интернет, а отступать некуда - позади фидо
[Профиль]  [ЛС] 

nosferato

Штурман

Пост 26-Дек-2011 21:50 (спустя 23 минуты)

[Q] 

А раздача будет? и когда?

_________________
Велик интернет, а отступать некуда - позади фидо
[Профиль]  [ЛС] 

and48

Корсар

169

Пост 19-Янв-2012 19:32 (спустя 23 дня)

[Q] 

Как фильм? Стоит смотреть?
[Профиль]  [ЛС] 

Wolf111

57040

Пост 22-Дек-2012 17:45 (спустя 11 месяцев 2 дня)

[Q] 

Помогу с раздачей
[Профиль]  [ЛС] 
Показать сообщения:    
Ответить на тему

Текущее время: Сегодня 21:58

Часовой пояс: GMT + 4



Вы не можете начинать темы
Вы не можете отвечать на сообщения
Вы не можете редактировать свои сообщения
Вы не можете удалять свои сообщения
Вы не можете голосовать в опросах
Вы не можете прикреплять файлы к сообщениям
Вы не можете скачивать файлы

▼ Вниз