ML
     
  Уважаемый Гость!
Вы можете поддержать проект и зарегистрироваться у наших партнеров - онлайн-стратегия MyLands. При регистрации в игре Вы получите код, который сможете активировать после регистрации на pirat.ca и получить 1000 дублонов.

Ваш код:
2fd4e750dd89cae3a36ea360f2b345ccfeb562d3
 
     

Марафон (Карен Оганесян) [2013 г., комедия, DVDRip] [Лицензия]

Ответить на тему
 
Автор
Сообщение

Пост 28-Июл-2013 13:25

[Q] 

AGKRus36

-Марафон-«Пока есть цель, жизнь продолжается»- Производство: Россия
Режиссер: Карен Оганесян
Жанр: комедия
Год выпуска: 2013 г.
Продолжительность: 01:35:21-Российская премьера: 4 июля 2013
Премьера (мир): 4 июля 2013-В ролях: Михаил Пореченков, Екатерина Васильева, Юлия Пересильд, Анатолий Белый, Игорь Савочкин, Ольга Волкова, Сергей Газаров, Анна Михалкова, Мария Аронова, Ирина Пивоварова-Описание: Жизнь Толика не удалась, спортивная карьера не состоялась, жена ушла к другому. Неуспешный, нелюбимый, безнадежный он потерял веру в себя. Все меняет случайная встреча со странной незнакомкой Анной Ильиничной, которая предлагает ему принять участие в необычном марафоне в далекой Америке…-Сэмпл КиноПоиск IMDbКачество видео: DVDRip
Контейнер: AVI
Видео кодек: XviD
Аудио кодек: AC3
Видео: 720x384 (1.85:1), 25.000 fps, XViD ~ 1594 kbps avg, 0.231 bit/pixel
Аудио: 48 kHz, АС3 6 ch, 448 kbps [Лицензия]
Cубтитры: отсутствуют
D:\Фильмы\Марафон\Marafon.2013.O.DVDRip.1400MB.avi
General
Complete name : D:\Фильмы\Марафон\Marafon.2013.O.DVDRip.1400MB.avi
Format : AVI
Format/Info : Audio Video Interleave
File size : 1.37 GiB
Duration : 1h 35mn
Overall bit rate : 2 052 Kbps
Writing application : VirtualDubMod 1.5.10.2 (build 2540/release)
Video #0
ID : 0
Format : MPEG-4 Visual
Format profile : Advanced [email protected]
Format settings, BVOP : 2
Format settings, QPel : No
Format settings, GMC : No warppoints
Format settings, Matrix : Default (MPEG)
Codec ID : XVID
Codec ID/Hint : XviD
Duration : 1h 35mn
Bit rate : 1 595 Kbps
Width : 720 pixels
Height : 384 pixels
Display aspect ratio : 1.85:1
Frame rate : 25.000 fps
Color space : YUV
Chroma subsampling : 4:2:0
Bit depth : 8 bits
Scan type : Progressive
Compression mode : Lossy
Bits/(Pixel*Frame) : 0.231
Stream size : 1.06 GiB (78%)
Writing library : XviD 1.2.1 (UTC 2008-12-04)
Audio #1
ID : 1
Format : AC-3
Format/Info : Audio Coding 3
Mode extension : CM (complete main)
Format settings, Endianness : Big
Codec ID : 2000
Duration : 1h 35mn
Bit rate mode : Constant
Bit rate : 448 Kbps
Channel(s) : 6 channels
Channel positions : Front: L C R, Side: L R, LFE
Sampling rate : 48.0 KHz
Bit depth : 16 bits
Compression mode : Lossy
Stream size : 306 MiB (22%)
Alignment : Split accross interleaves
Interleave, duration : 40 ms (1.00 video frame)
Interleave, preload duration : 500 ms
Download / Скачать

Хотите скачать бесплатно? Зарегистрируйтесь на сайте (ссылка на регистрацию). Pirat.ca - самый быстрый торрент трекер в рунете!

Как скачивать  ·   Что такое торрент  ·   Рейтинг и ограничения

Пост 28-Июл-2013 14:10 (спустя 45 минут)

Топик был перенесен из форума Наше кино (Трюм) в форум Новинки (HD|DVD|BD| TV|SAT|PDTV| - Rips)

kugesan
 

cssergey

Корсар

Пост 28-Июл-2013 16:24 (спустя 2 часа 59 минут)

[Q] 

Лови бочку
[Профиль]  [ЛС] 

ivan836

Морской Волк

Пост 28-Июл-2013 22:10 (спустя 5 часов)

[Q] 

Фильм конечно своеобразный и не всем понравится. Но посмотреть наверно можно (я посмотрел). А вот комедией назвать его нельзя. Спасибо!!! Лови бочку
[Профиль]  [ЛС] 

pool_09

Лоцман

Пост 31-Июл-2013 00:25 (спустя 2 дня 2 часа)

[Q] 

Раздающему спасибо. А вот у того, кто это комедией обозвал, пусть руки отсохнут. Вечер насмарку.
[Профиль]  [ЛС] 

Alex Yz

Гроза морей

Пост 23-Авг-2013 01:17 (спустя 23 дня)

[Q] 

Ради Пореченкова и Васильевой буду качать. Как посмотрим сообщим о впечатлениях. Спасибо за раздачу. Спасибо!!!
[Профиль]  [ЛС] 

urlas66

Морской Волк

Пост 26-Авг-2013 07:16 (спустя 3 дня)

[Q] 

херня
[Профиль]  [ЛС] 

Толик1

Лоцман

Пост 28-Авг-2013 19:54 (спустя 2 дня 12 часов)

[Q] 

Фильм конечно своеобразный и не всем понравится. Но посмотреть наверно можно (я посмотрел). А вот комедией назвать его нельзя.
обсолютно согласен
[Профиль]  [ЛС] 

marcopolo27

Шкипер

Пост 29-Авг-2013 22:27 (спустя 1 день 2 часа)

[Q] 

норм кино, не самое худшее творение отечественной киноиндустрии
[Профиль]  [ЛС] 

urlas66

Морской Волк

Пост 06-Сен-2013 09:18 (спустя 7 дней)

[Q] 

Трафик потрачен зря!
[Профиль]  [ЛС] 

viktor41

Шкипер

Пост 13-Окт-2013 19:47 (спустя 1 месяц 7 дней)

[Q] 

Раздающему спасибо. Автору респект!!!
[Профиль]  [ЛС] 
Показать сообщения:    
Ответить на тему

Текущее время: Сегодня 14:11

Часовой пояс: GMT + 4



Вы не можете начинать темы
Вы не можете отвечать на сообщения
Вы не можете редактировать свои сообщения
Вы не можете удалять свои сообщения
Вы не можете голосовать в опросах
Вы не можете прикреплять файлы к сообщениям
Вы не можете скачивать файлы

▼ Вниз